  0
SECTION
  2
HEADER
  9
$ACADVER
  1
AC1015
  9
$ACADMAINTVER
 70
    18
  9
$DWGCODEPAGE
  3
ANSI_1252
  9
$INSBASE
 10
0.0
 20
0.0
 30
0.0
  9
$EXTMIN
 10
0.0
 20
0.0
 30
0.0
  9
$EXTMAX
 10
297.0
 20
210.0
 30
0.0
  9
$LIMMIN
 10
0.0
 20
0.0
  9
$LIMMAX
 10
297.0
 20
210.0
  9
$ORTHOMODE
 70
     0
  9
$REGENMODE
 70
     1
  9
$FILLMODE
 70
     1
  9
$QTEXTMODE
 70
     0
  9
$MIRRTEXT
 70
     0
  9
$LTSCALE
 40
1.0
  9
$ATTMODE
 70
     1
  9
$TEXTSIZE
 40
0.2
  9
$TRACEWID
 40
0.05
  9
$TEXTSTYLE
  7
Standard
  9
$CLAYER
  8
0
  9
$CELTYPE
  6
ByLayer
  9
$CECOLOR
 62
   256
  9
$CELTSCALE
 40
1.0
  9
$DISPSILH
 70
     0
  9
$DIMSCALE
 40
1.0
  9
$DIMASZ
 40
1.799999999999999
  9
$DIMEXO
 40
0.0625
  9
$DIMDLI
 40
0.38
  9
$DIMRND
 40
0.0
  9
$DIMDLE
 40
0.0
  9
$DIMEXE
 40
0.18
  9
$DIMTP
 40
0.0
  9
$DIMTM
 40
0.0
  9
$DIMTXT
 40
0.3499999940395355
  9
$DIMCEN
 40
0.09
  9
$DIMTSZ
 40
0.0
  9
$DIMTOL
 70
     0
  9
$DIMLIM
 70
     0
  9
$DIMTIH
 70
     1
  9
$DIMTOH
 70
     1
  9
$DIMSE1
 70
     0
  9
$DIMSE2
 70
     0
  9
$DIMTAD
 70
     0
  9
$DIMZIN
 70
     0
  9
$DIMBLK
  1

  9
$DIMASO
 70
     1
  9
$DIMSHO
 70
     1
  9
$DIMPOST
  1

  9
$DIMAPOST
  1

  9
$DIMALT
 70
     0
  9
$DIMALTD
 70
     2
  9
$DIMALTF
 40
25.4
  9
$DIMLFAC
 40
1.0
  9
$DIMTOFL
 70
     0
  9
$DIMTVP
 40
0.0
  9
$DIMTIX
 70
     0
  9
$DIMSOXD
 70
     0
  9
$DIMSAH
 70
     0
  9
$DIMBLK1
  1

  9
$DIMBLK2
  1

  9
$DIMSTYLE
  2
Standard
  9
$DIMCLRD
 70
     0
  9
$DIMCLRE
 70
     0
  9
$DIMCLRT
 70
     0
  9
$DIMTFAC
 40
1.0
  9
$DIMGAP
 40
0.09
  9
$DIMJUST
 70
     0
  9
$DIMSD1
 70
     0
  9
$DIMSD2
 70
     0
  9
$DIMTOLJ
 70
     1
  9
$DIMTZIN
 70
     0
  9
$DIMALTZ
 70
     0
  9
$DIMALTTZ
 70
     0
  9
$DIMUPT
 70
     0
  9
$DIMDEC
 70
     4
  9
$DIMTDEC
 70
     4
  9
$DIMALTU
 70
     2
  9
$DIMALTTD
 70
     2
  9
$DIMTXSTY
  7
Standard
  9
$DIMAUNIT
 70
     0
  9
$DIMADEC
 70
     0
  9
$DIMALTRND
 40
0.0
  9
$DIMAZIN
 70
     0
  9
$DIMDSEP
 70
    46
  9
$DIMATFIT
 70
     3
  9
$DIMFRAC
 70
     0
  9
$DIMLDRBLK
  1

  9
$DIMLUNIT
 70
     2
  9
$DIMLWD
 70
    -2
  9
$DIMLWE
 70
    -2
  9
$DIMTMOVE
 70
     0
  9
$LUNITS
 70
     2
  9
$LUPREC
 70
     4
  9
$SKETCHINC
 40
0.1
  9
$FILLETRAD
 40
0.0
  9
$AUNITS
 70
     0
  9
$AUPREC
 70
     0
  9
$MENU
  1
.
  9
$ELEVATION
 40
0.0
  9
$PELEVATION
 40
0.0
  9
$THICKNESS
 40
0.0
  9
$LIMCHECK
 70
     0
  9
$CHAMFERA
 40
0.0
  9
$CHAMFERB
 40
0.0
  9
$CHAMFERC
 40
0.0
  9
$CHAMFERD
 40
0.0
  9
$SKPOLY
 70
     0
  9
$TDCREATE
 40
2454111.730245163
  9
$TDUCREATE
 40
2454111.688578495
  9
$TDUPDATE
 40
2454111.730245163
  9
$TDUUPDATE
 40
2454111.688578495
  9
$TDINDWG
 40
0.0000723148
  9
$TDUSRTIMER
 40
0.0000723148
  9
$USRTIMER
 70
     1
  9
$ANGBASE
 50
0.0
  9
$ANGDIR
 70
     0
  9
$PDMODE
 70
     0
  9
$PDSIZE
 40
0.0
  9
$PLINEWID
 40
0.0
  9
$SPLFRAME
 70
     0
  9
$SPLINETYPE
 70
     6
  9
$SPLINESEGS
 70
     8
  9
$HANDSEED
  5
970
  9
$SURFTAB1
 70
     6
  9
$SURFTAB2
 70
     6
  9
$SURFTYPE
 70
     6
  9
$SURFU
 70
     6
  9
$SURFV
 70
     6
  9
$UCSBASE
  2

  9
$UCSNAME
  2

  9
$UCSORG
 10
0.0
 20
0.0
 30
0.0
  9
$UCSXDIR
 10
1.0
 20
0.0
 30
0.0
  9
$UCSYDIR
 10
0.0
 20
1.0
 30
0.0
  9
$UCSORTHOREF
  2

  9
$UCSORTHOVIEW
 70
     0
  9
$UCSORGTOP
 10
0.0
 20
0.0
 30
0.0
  9
$UCSORGBOTTOM
 10
0.0
 20
0.0
 30
0.0
  9
$UCSORGLEFT
 10
0.0
 20
0.0
 30
0.0
  9
$UCSORGRIGHT
 10
0.0
 20
0.0
 30
0.0
  9
$UCSORGFRONT
 10
0.0
 20
0.0
 30
0.0
  9
$UCSORGBACK
 10
0.0
 20
0.0
 30
0.0
  9
$PUCSBASE
  2

  9
$PUCSNAME
  2

  9
$PUCSORG
 10
0.0
 20
0.0
 30
0.0
  9
$PUCSXDIR
 10
1.0
 20
0.0
 30
0.0
  9
$PUCSYDIR
 10
0.0
 20
1.0
 30
0.0
  9
$PUCSORTHOREF
  2

  9
$PUCSORTHOVIEW
 70
     0
  9
$PUCSORGTOP
 10
0.0
 20
0.0
 30
0.0
  9
$PUCSORGBOTTOM
 10
0.0
 20
0.0
 30
0.0
  9
$PUCSORGLEFT
 10
0.0
 20
0.0
 30
0.0
  9
$PUCSORGRIGHT
 10
0.0
 20
0.0
 30
0.0
  9
$PUCSORGFRONT
 10
0.0
 20
0.0
 30
0.0
  9
$PUCSORGBACK
 10
0.0
 20
0.0
 30
0.0
  9
$USERI1
 70
     0
  9
$USERI2
 70
     0
  9
$USERI3
 70
     0
  9
$USERI4
 70
     0
  9
$USERI5
 70
     0
  9
$USERR1
 40
0.0
  9
$USERR2
 40
0.0
  9
$USERR3
 40
0.0
  9
$USERR4
 40
0.0
  9
$USERR5
 40
0.0
  9
$WORLDVIEW
 70
     1
  9
$SHADEDGE
 70
     3
  9
$SHADEDIF
 70
    70
  9
$TILEMODE
 70
     1
  9
$MAXACTVP
 70
    64
  9
$PINSBASE
 10
0.0
 20
0.0
 30
0.0
  9
$PLIMCHECK
 70
     0
  9
$PEXTMIN
 10
0.0
 20
0.0
 30
0.0
  9
$PEXTMAX
 10
297.0
 20
210.0
 30
0.0
  9
$PLIMMIN
 10
0.0
 20
0.0
  9
$PLIMMAX
 10
297.0
 20
210.0
  9
$UNITMODE
 70
     0
  9
$VISRETAIN
 70
     1
  9
$PLINEGEN
 70
     0
  9
$PSLTSCALE
 70
     1
  9
$TREEDEPTH
 70
  3020
  9
$CMLSTYLE
  2
Standard
  9
$CMLJUST
 70
     0
  9
$CMLSCALE
 40
1.0
  9
$PROXYGRAPHICS
 70
     1
  9
$MEASUREMENT
 70
     1
  9
$CELWEIGHT
370
    -1
  9
$ENDCAPS
280
     0
  9
$JOINSTYLE
280
     0
  9
$LWDISPLAY
290
     0
  9
$INSUNITS
 70
     0
  9
$HYPERLINKBASE
  1

  9
$STYLESHEET
  1

  9
$XEDIT
290
     1
  9
$CEPSNTYPE
380
     0
  9
$PSTYLEMODE
290
     1
  9
$FINGERPRINTGUID
  2
{8F1CDB05-BD5D-4E58-A3DC-448C57940408}
  9
$VERSIONGUID
  2
{30899610-12D2-4930-8236-CD2AF7A1F6E0}
  9
$EXTNAMES
290
     1
  9
$PSVPSCALE
 40
0.0
  9
$OLESTARTUP
290
     0
  0
ENDSEC
  0
SECTION
  2
CLASSES
  0
CLASS
  1
ACDBDICTIONARYWDFLT
  2
AcDbDictionaryWithDefault
  3
ObjectDBX Classes
 90
        0
280
     0
281
     0
  0
CLASS
  1
MATERIAL
  2
AcDbMaterial
  3
ObjectDBX Classes
 90
     1024
280
     0
281
     0
  0
CLASS
  1
VISUALSTYLE
  2
AcDbVisualStyle
  3
ObjectDBX Classes
 90
     4095
280
     0
281
     0
  0
CLASS
  1
TABLESTYLE
  2
AcDbTableStyle
  3
ObjectDBX Classes
 90
     4095
280
     0
281
     0
  0
CLASS
  1
DICTIONARYVAR
  2
AcDbDictionaryVar
  3
ObjectDBX Classes
 90
        0
280
     0
281
     0
  0
CLASS
  1
ACDBPLACEHOLDER
  2
AcDbPlaceHolder
  3
ObjectDBX Classes
 90
        0
280
     0
281
     0
  0
CLASS
  1
LAYOUT
  2
AcDbLayout
  3
ObjectDBX Classes
 90
        0
280
     0
281
     0
  0
ENDSEC
  0
SECTION
  2
TABLES
  0
TABLE
  2
VPORT
  5
8
330
0
100
AcDbSymbolTable
 70
     1
  0
VPORT
  5
28
330
8
100
AcDbSymbolTableRecord
100
AcDbViewportTableRecord
  2
*Active
 70
     0
 10
0.0
 20
0.0
 11
1.0
 21
1.0
 12
148.5
 22
105.0
 13
0.0
 23
0.0
 14
1.0
 24
1.0
 15
0.0
 25
0.0
 16
0.0
 26
0.0
 36
1.0
 17
0.0
 27
0.0
 37
0.0
 40
210.0
 41
1.414285714285714
 42
50.0
 43
0.0
 44
0.0
 50
0.0
 51
0.0
 71
     0
 72
   100
 73
     1
 74
     1
 75
     0
 76
     0
 77
     0
 78
     0
281
     0
 65
     1
110
0.0
120
0.0
130
0.0
111
1.0
121
0.0
131
0.0
112
0.0
122
1.0
132
0.0
 79
     0
146
0.0
  0
ENDTAB
  0
TABLE
  2
LTYPE
  5
5
330
0
100
AcDbSymbolTable
 70
    59
  0
LTYPE
  5
29
330
5
100
AcDbSymbolTableRecord
100
AcDbLinetypeTableRecord
  2
ByBlock
 70
     0
  3

 72
    65
 73
     0
 40
0.0
  0
LTYPE
  5
2A
330
5
100
AcDbSymbolTableRecord
100
AcDbLinetypeTableRecord
  2
ByLayer
 70
     0
  3

 72
    65
 73
     0
 40
0.0
  0
LTYPE
  5
2B
330
5
100
AcDbSymbolTableRecord
100
AcDbLinetypeTableRecord
  2
Continuous
 70
     0
  3
Solid line
 72
    65
 73
     0
 40
0.0
  0
LTYPE
  5
40
330
5
100
AcDbSymbolTableRecord
100
AcDbLinetypeTableRecord
  2
Section_View_Lines
 70
     0
  3
Section View Lines
 72
    65
 73
     4
 40
0.8406
 49
0.6614
 74
     0
 49
-0.0827
 74
     0
 49
0.0138
 74
     0
 49
-0.0827
 74
     0
  0
LTYPE
  5
41
330
5
100
AcDbSymbolTableRecord
100
AcDbLinetypeTableRecord
  2
CHAIN
 70
     0
  3
Chain ____ _ ____ _ ____ _ ____ _ ____ _ ____
 72
    65
 73
     4
 40
0.3543
 49
0.2362
 74
     0
 49
-0.0295
 74
     0
 49
0.0591
 74
     0
 49
-0.0295
 74
     0
  0
LTYPE
  5
42
330
5
100
AcDbSymbolTableRecord
100
AcDbLinetypeTableRecord
  2
DASH_DOT
 70
     0
  3
Dash dot _._._._._._._._._._._._._._._.
 72
    65
 73
     4
 40
0.37
 49
0.24
 74
     0
 49
-0.06
 74
     0
 49
0.01
 74
     0
 49
-0.06
 74
     0
  0
LTYPE
  5
43
330
5
100
AcDbSymbolTableRecord
100
AcDbLinetypeTableRecord
  2
DASH_DOUBLE_DOT
 70
     0
  3
Dash Double Dot __ __ . __ __ . __ __ . __ _
 72
    65
 73
     6
 40
0.4398
 49
0.24
 74
     0
 49
-0.06
 74
     0
 49
0.0098
 74
     0
 49
-0.06
 74
     0
 49
0.01
 74
     0
 49
-0.06
 74
     0
  0
LTYPE
  5
44
330
5
100
AcDbSymbolTableRecord
100
AcDbLinetypeTableRecord
  2
DASH_TRIPLE_DOT
 70
     0
  3
Dash Triple-Dot _ . . . _ . . . _ . . . _
 72
    65
 73
     8
 40
0.51
 49
0.24
 74
     0
 49
-0.06
 74
     0
 49
0.01
 74
     0
 49
-0.06
 74
     0
 49
0.01
 74
     0
 49
-0.06
 74
     0
 49
0.01
 74
     0
 49
-0.06
 74
     0
  0
LTYPE
  5
45
330
5
100
AcDbSymbolTableRecord
100
AcDbLinetypeTableRecord
  2
DASHED
 70
     0
  3
Dashed __ __ __ __ __ __ __ __ __ __ __ __ __ _
 72
    65
 73
     2
 40
0.2067
 49
0.1654
 74
     0
 49
-0.0413
 74
     0
  0
LTYPE
  5
46
330
5
100
AcDbSymbolTableRecord
100
AcDbLinetypeTableRecord
  2
DASHED_SPACE
 70
     0
  3
Dashed Space _._._._._._._._._._._._._._._.
 72
    65
 73
     2
 40
0.2067
 49
0.1654
 74
     0
 49
-0.0413
 74
     0
  0
LTYPE
  5
47
330
5
100
AcDbSymbolTableRecord
100
AcDbLinetypeTableRecord
  2
DOTTED
 70
     0
  3
Dotted . . . . . . . . . . . . . . . . . . . . 
 72
    65
 73
     2
 40
0.0482
 49
0.0069
 74
     0
 49
-0.0413
 74
     0
  0
LTYPE
  5
48
330
5
100
AcDbSymbolTableRecord
100
AcDbLinetypeTableRecord
  2
DOUBLE_DASH_CHAIN
 70
     0
  3
Double Dash Chain ___ _ _ ___ _ _ ___ _ _ ___ _
 72
    65
 73
     6
 40
1.240299999999999
 49
0.6614
 74
     0
 49
-0.0827
 74
     0
 49
0.1654
 74
     0
 49
-0.0827
 74
     0
 49
0.1654
 74
     0
 49
-0.0827
 74
     0
  0
LTYPE
  5
49
330
5
100
AcDbSymbolTableRecord
100
AcDbLinetypeTableRecord
  2
DOUBLE_DASH_DOT
 70
     0
  3
Double Dash Dot __ __ . __ __ . __ __ . __ _
 72
    65
 73
     6
 40
0.67
 49
0.24
 74
     0
 49
-0.06
 74
     0
 49
0.24
 74
     0
 49
-0.06
 74
     0
 49
0.01
 74
     0
 49
-0.06
 74
     0
  0
LTYPE
  5
4A
330
5
100
AcDbSymbolTableRecord
100
AcDbLinetypeTableRecord
  2
DOUBLE_DASH_DOUBLE_DOT
 70
     0
  3
Double-dash double-dot _ _ . . _ _ . . _
 72
    65
 73
     8
 40
0.7400000000000001
 49
0.24
 74
     0
 49
-0.06
 74
     0
 49
0.24
 74
     0
 49
-0.06
 74
     0
 49
0.01
 74
     0
 49
-0.06
 74
     0
 49
0.01
 74
     0
 49
-0.06
 74
     0
  0
LTYPE
  5
4B
330
5
100
AcDbSymbolTableRecord
100
AcDbLinetypeTableRecord
  2
DOUBLE_DASH_TRIPLE_DOT
 70
     0
  3
Double Dash Triple Dot __ __ . . . __ __ . . .
 72
    65
 73
    10
 40
0.8100000000000001
 49
0.24
 74
     0
 49
-0.06
 74
     0
 49
0.24
 74
     0
 49
-0.06
 74
     0
 49
0.01
 74
     0
 49
-0.06
 74
     0
 49
0.01
 74
     0
 49
-0.06
 74
     0
 49
0.01
 74
     0
 49
-0.06
 74
     0
  0
LTYPE
  5
4C
330
5
100
AcDbSymbolTableRecord
100
AcDbLinetypeTableRecord
  2
LONG_DASH_DOTTED
 70
     0
  3
Long-Dash Dot ____ . ____ . ____ . ____ . _
 72
    65
 73
     4
 40
0.3001
 49
0.2362
 74
     0
 49
-0.0295
 74
     0
 49
0.0049
 74
     0
 49
-0.0295
 74
     0
  0
LTYPE
  5
4D
330
5
100
AcDbSymbolTableRecord
100
AcDbLinetypeTableRecord
  2
LONG_DASH_DOUBLE_DOT
 70
     0
  3
Long Dash Double Dot ____ . . ____ . . ____ . .
 72
    65
 73
     6
 40
0.3345
 49
0.2362
 74
     0
 49
-0.0295
 74
     0
 49
0.0049
 74
     0
 49
-0.0295
 74
     0
 49
0.0049
 74
     0
 49
-0.0295
 74
     0
  0
LTYPE
  5
4E
330
5
100
AcDbSymbolTableRecord
100
AcDbLinetypeTableRecord
  2
LONG_DASH_TRIPLE_DOT
 70
     0
  3
Long Dash Triple Dot ____ ... ____ ... ____
 72
    65
 73
     8
 40
0.75
 49
0.48
 74
     0
 49
-0.06
 74
     0
 49
0.01
 74
     0
 49
-0.06
 74
     0
 49
0.01
 74
     0
 49
-0.06
 74
     0
 49
0.01
 74
     0
 49
-0.06
 74
     0
  0
LTYPE
  5
4F
330
5
100
AcDbSymbolTableRecord
100
AcDbLinetypeTableRecord
  2
BORDER
 70
     0
  3
Border __ __ . __ __ . __ __ . __ __ . __ __ .
 72
    65
 73
     6
 40
44.45
 49
12.7
 74
     0
 49
-6.349999999999999
 74
     0
 49
12.7
 74
     0
 49
-6.349999999999999
 74
     0
 49
0.0
 74
     0
 49
-6.349999999999999
 74
     0
  0
LTYPE
  5
50
330
5
100
AcDbSymbolTableRecord
100
AcDbLinetypeTableRecord
  2
BORDER2
 70
     0
  3
Border (.5x) __.__.__.__.__.__.__.__.__.__.__.
 72
    65
 73
     6
 40
22.225
 49
6.349999999999999
 74
     0
 49
-3.174999999999999
 74
     0
 49
6.349999999999999
 74
     0
 49
-3.174999999999999
 74
     0
 49
0.0
 74
     0
 49
-3.174999999999999
 74
     0
  0
LTYPE
  5
51
330
5
100
AcDbSymbolTableRecord
100
AcDbLinetypeTableRecord
  2
BORDERX2
 70
     0
  3
Border (2x) ____  ____  .  ____  ____  .  ___
 72
    65
 73
     6
 40
88.9
 49
25.4
 74
     0
 49
-12.7
 74
     0
 49
25.4
 74
     0
 49
-12.7
 74
     0
 49
0.0
 74
     0
 49
-12.7
 74
     0
  0
LTYPE
  5
52
330
5
100
AcDbSymbolTableRecord
100
AcDbLinetypeTableRecord
  2
CENTER
 70
     0
  3
Center ____ _ ____ _ ____ _ ____ _ ____ _ ____
 72
    65
 73
     4
 40
50.8
 49
31.75
 74
     0
 49
-6.349999999999999
 74
     0
 49
6.349999999999999
 74
     0
 49
-6.349999999999999
 74
     0
  0
LTYPE
  5
53
330
5
100
AcDbSymbolTableRecord
100
AcDbLinetypeTableRecord
  2
CENTER2
 70
     0
  3
Center (.5x) ___ _ ___ _ ___ _ ___ _ ___ _ ___
 72
    65
 73
     4
 40
28.575
 49
19.05
 74
     0
 49
-3.174999999999999
 74
     0
 49
3.174999999999999
 74
     0
 49
-3.174999999999999
 74
     0
  0
LTYPE
  5
54
330
5
100
AcDbSymbolTableRecord
100
AcDbLinetypeTableRecord
  2
CENTERX2
 70
     0
  3
Center (2x) ________  __  ________  __  _____
 72
    65
 73
     4
 40
101.6
 49
63.5
 74
     0
 49
-12.7
 74
     0
 49
12.7
 74
     0
 49
-12.7
 74
     0
  0
LTYPE
  5
55
330
5
100
AcDbSymbolTableRecord
100
AcDbLinetypeTableRecord
  2
DASHDOT2
 70
     0
  3
Dash dot (.5x) _._._._._._._._._._._._._._._.
 72
    65
 73
     4
 40
12.7
 49
6.349999999999999
 74
     0
 49
-3.174999999999999
 74
     0
 49
0.0
 74
     0
 49
-3.174999999999999
 74
     0
  0
LTYPE
  5
56
330
5
100
AcDbSymbolTableRecord
100
AcDbLinetypeTableRecord
  2
DASHDOTX2
 70
     0
  3
Dash dot (2x) ____  .  ____  .  ____  .  ___
 72
    65
 73
     4
 40
50.8
 49
25.4
 74
     0
 49
-12.7
 74
     0
 49
0.0
 74
     0
 49
-12.7
 74
     0
  0
LTYPE
  5
57
330
5
100
AcDbSymbolTableRecord
100
AcDbLinetypeTableRecord
  2
DASHED2
 70
     0
  3
Dashed (.5x) _ _ _ _ _ _ _ _ _ _ _ _ _ _ _ _ _
 72
    65
 73
     2
 40
9.524999999999998
 49
6.349999999999999
 74
     0
 49
-3.174999999999999
 74
     0
  0
LTYPE
  5
58
330
5
100
AcDbSymbolTableRecord
100
AcDbLinetypeTableRecord
  2
DASHEDX2
 70
     0
  3
Dashed (2x) ____  ____  ____  ____  ____  ___
 72
    65
 73
     2
 40
38.1
 49
25.4
 74
     0
 49
-12.7
 74
     0
  0
LTYPE
  5
59
330
5
100
AcDbSymbolTableRecord
100
AcDbLinetypeTableRecord
  2
DIVIDE
 70
     0
  3
Divide ____ . . ____ . . ____ . . ____ . . ____
 72
    65
 73
     6
 40
31.75
 49
12.7
 74
     0
 49
-6.349999999999999
 74
     0
 49
0.0
 74
     0
 49
-6.349999999999999
 74
     0
 49
0.0
 74
     0
 49
-6.349999999999999
 74
     0
  0
LTYPE
  5
5A
330
5
100
AcDbSymbolTableRecord
100
AcDbLinetypeTableRecord
  2
DIVIDE2
 70
     0
  3
Divide (.5x) __..__..__..__..__..__..__..__.._
 72
    65
 73
     6
 40
15.875
 49
6.349999999999999
 74
     0
 49
-3.174999999999999
 74
     0
 49
0.0
 74
     0
 49
-3.174999999999999
 74
     0
 49
0.0
 74
     0
 49
-3.174999999999999
 74
     0
  0
LTYPE
  5
5B
330
5
100
AcDbSymbolTableRecord
100
AcDbLinetypeTableRecord
  2
DIVIDEX2
 70
     0
  3
Divide (2x) ________  .  .  ________  .  .  _
 72
    65
 73
     6
 40
63.49999999999999
 49
25.4
 74
     0
 49
-12.7
 74
     0
 49
0.0
 74
     0
 49
-12.7
 74
     0
 49
0.0
 74
     0
 49
-12.7
 74
     0
  0
LTYPE
  5
5C
330
5
100
AcDbSymbolTableRecord
100
AcDbLinetypeTableRecord
  2
DOT
 70
     0
  3
Dot . . . . . . . . . . . . . . . . . . . . . .
 72
    65
 73
     2
 40
6.349999999999999
 49
0.0
 74
     0
 49
-6.349999999999999
 74
     0
  0
LTYPE
  5
5D
330
5
100
AcDbSymbolTableRecord
100
AcDbLinetypeTableRecord
  2
DOT2
 70
     0
  3
Dot (.5x) .....................................
 72
    65
 73
     2
 40
3.174999999999999
 49
0.0
 74
     0
 49
-3.174999999999999
 74
     0
  0
LTYPE
  5
5E
330
5
100
AcDbSymbolTableRecord
100
AcDbLinetypeTableRecord
  2
DOTX2
 70
     0
  3
Dot (2x) .  .  .  .  .  .  .  .  .  .  .  .  . 
 72
    65
 73
     2
 40
12.7
 49
0.0
 74
     0
 49
-12.7
 74
     0
  0
LTYPE
  5
5F
330
5
100
AcDbSymbolTableRecord
100
AcDbLinetypeTableRecord
  2
HIDDEN
 70
     0
  3
Hidden __ __ __ __ __ __ __ __ __ __ __ __ __ _
 72
    65
 73
     2
 40
9.524999999999998
 49
6.349999999999999
 74
     0
 49
-3.174999999999999
 74
     0
  0
LTYPE
  5
60
330
5
100
AcDbSymbolTableRecord
100
AcDbLinetypeTableRecord
  2
HIDDEN2
 70
     0
  3
Hidden (.5x) _ _ _ _ _ _ _ _ _ _ _ _ _ _ _ _ _
 72
    65
 73
     2
 40
4.762499999999999
 49
3.174999999999999
 74
     0
 49
-1.587499999999999
 74
     0
  0
LTYPE
  5
61
330
5
100
AcDbSymbolTableRecord
100
AcDbLinetypeTableRecord
  2
HIDDENX2
 70
     0
  3
Hidden (2x) ____ ____ ____ ____ ____ ____ ____
 72
    65
 73
     2
 40
19.05
 49
12.7
 74
     0
 49
-6.349999999999999
 74
     0
  0
LTYPE
  5
62
330
5
100
AcDbSymbolTableRecord
100
AcDbLinetypeTableRecord
  2
PHANTOM
 70
     0
  3
Phantom ______  __  __  ______  __  __  ______
 72
    65
 73
     6
 40
63.5
 49
31.75
 74
     0
 49
-6.349999999999999
 74
     0
 49
6.349999999999999
 74
     0
 49
-6.349999999999999
 74
     0
 49
6.349999999999999
 74
     0
 49
-6.349999999999999
 74
     0
  0
LTYPE
  5
63
330
5
100
AcDbSymbolTableRecord
100
AcDbLinetypeTableRecord
  2
PHANTOM2
 70
     0
  3
Phantom (.5x) ___ _ _ ___ _ _ ___ _ _ ___ _ _
 72
    65
 73
     6
 40
31.75
 49
15.875
 74
     0
 49
-3.174999999999999
 74
     0
 49
3.174999999999999
 74
     0
 49
-3.174999999999999
 74
     0
 49
3.174999999999999
 74
     0
 49
-3.174999999999999
 74
     0
  0
LTYPE
  5
64
330
5
100
AcDbSymbolTableRecord
100
AcDbLinetypeTableRecord
  2
PHANTOMX2
 70
     0
  3
Phantom (2x) ____________    ____    ____   _
 72
    65
 73
     6
 40
127.0
 49
63.5
 74
     0
 49
-12.7
 74
     0
 49
12.7
 74
     0
 49
-12.7
 74
     0
 49
12.7
 74
     0
 49
-12.7
 74
     0
  0
LTYPE
  5
65
330
5
100
AcDbSymbolTableRecord
100
AcDbLinetypeTableRecord
  2
ACAD_ISO02W100
 70
     0
  3
ISO dash __ __ __ __ __ __ __ __ __ __ __ __ __
 72
    65
 73
     2
 40
15.0
 49
12.0
 74
     0
 49
-3.0
 74
     0
  0
LTYPE
  5
66
330
5
100
AcDbSymbolTableRecord
100
AcDbLinetypeTableRecord
  2
ACAD_ISO03W100
 70
     0
  3
ISO dash space __    __    __    __    __    __
 72
    65
 73
     2
 40
30.0
 49
12.0
 74
     0
 49
-18.0
 74
     0
  0
LTYPE
  5
67
330
5
100
AcDbSymbolTableRecord
100
AcDbLinetypeTableRecord
  2
ACAD_ISO04W100
 70
     0
  3
ISO long-dash dot ____ . ____ . ____ . ____ . _
 72
    65
 73
     4
 40
30.0
 49
24.0
 74
     0
 49
-3.0
 74
     0
 49
0.0
 74
     0
 49
-3.0
 74
     0
  0
LTYPE
  5
68
330
5
100
AcDbSymbolTableRecord
100
AcDbLinetypeTableRecord
  2
ACAD_ISO05W100
 70
     0
  3
ISO long-dash double-dot ____ .. ____ .. ____ .
 72
    65
 73
     6
 40
33.0
 49
24.0
 74
     0
 49
-3.0
 74
     0
 49
0.0
 74
     0
 49
-3.0
 74
     0
 49
0.0
 74
     0
 49
-3.0
 74
     0
  0
LTYPE
  5
69
330
5
100
AcDbSymbolTableRecord
100
AcDbLinetypeTableRecord
  2
ACAD_ISO06W100
 70
     0
  3
ISO long-dash triple-dot ____ ... ____ ... ____
 72
    65
 73
     8
 40
36.0
 49
24.0
 74
     0
 49
-3.0
 74
     0
 49
0.0
 74
     0
 49
-3.0
 74
     0
 49
0.0
 74
     0
 49
-3.0
 74
     0
 49
0.0
 74
     0
 49
-3.0
 74
     0
  0
LTYPE
  5
6A
330
5
100
AcDbSymbolTableRecord
100
AcDbLinetypeTableRecord
  2
ACAD_ISO07W100
 70
     0
  3
ISO dot . . . . . . . . . . . . . . . . . . . .
 72
    65
 73
     2
 40
3.0
 49
0.0
 74
     0
 49
-3.0
 74
     0
  0
LTYPE
  5
6B
330
5
100
AcDbSymbolTableRecord
100
AcDbLinetypeTableRecord
  2
ACAD_ISO08W100
 70
     0
  3
ISO long-dash short-dash ____ __ ____ __ ____ _
 72
    65
 73
     4
 40
36.0
 49
24.0
 74
     0
 49
-3.0
 74
     0
 49
6.0
 74
     0
 49
-3.0
 74
     0
  0
LTYPE
  5
6C
330
5
100
AcDbSymbolTableRecord
100
AcDbLinetypeTableRecord
  2
ACAD_ISO09W100
 70
     0
  3
ISO long-dash double-short-dash ____ __ __ ____
 72
    65
 73
     6
 40
45.0
 49
24.0
 74
     0
 49
-3.0
 74
     0
 49
6.0
 74
     0
 49
-3.0
 74
     0
 49
6.0
 74
     0
 49
-3.0
 74
     0
  0
LTYPE
  5
6D
330
5
100
AcDbSymbolTableRecord
100
AcDbLinetypeTableRecord
  2
ACAD_ISO10W100
 70
     0
  3
ISO dash dot __ . __ . __ . __ . __ . __ . __ .
 72
    65
 73
     4
 40
18.0
 49
12.0
 74
     0
 49
-3.0
 74
     0
 49
0.0
 74
     0
 49
-3.0
 74
     0
  0
LTYPE
  5
6E
330
5
100
AcDbSymbolTableRecord
100
AcDbLinetypeTableRecord
  2
ACAD_ISO11W100
 70
     0
  3
ISO double-dash dot __ __ . __ __ . __ __ . __ 
 72
    65
 73
     6
 40
33.0
 49
12.0
 74
     0
 49
-3.0
 74
     0
 49
12.0
 74
     0
 49
-3.0
 74
     0
 49
0.0
 74
     0
 49
-3.0
 74
     0
  0
LTYPE
  5
6F
330
5
100
AcDbSymbolTableRecord
100
AcDbLinetypeTableRecord
  2
ACAD_ISO12W100
 70
     0
  3
ISO dash double-dot __ . . __ . . __ . . __ . .
 72
    65
 73
     6
 40
21.0
 49
12.0
 74
     0
 49
-3.0
 74
     0
 49
0.0
 74
     0
 49
-3.0
 74
     0
 49
0.0
 74
     0
 49
-3.0
 74
     0
  0
LTYPE
  5
70
330
5
100
AcDbSymbolTableRecord
100
AcDbLinetypeTableRecord
  2
ACAD_ISO13W100
 70
     0
  3
ISO double-dash double-dot __ __ . . __ __ . . 
 72
    65
 73
     8
 40
36.0
 49
12.0
 74
     0
 49
-3.0
 74
     0
 49
12.0
 74
     0
 49
-3.0
 74
     0
 49
0.0
 74
     0
 49
-3.0
 74
     0
 49
0.0
 74
     0
 49
-3.0
 74
     0
  0
LTYPE
  5
71
330
5
100
AcDbSymbolTableRecord
100
AcDbLinetypeTableRecord
  2
ACAD_ISO14W100
 70
     0
  3
ISO dash triple-dot __ . . . __ . . . __ . . . 
 72
    65
 73
     8
 40
24.0
 49
12.0
 74
     0
 49
-3.0
 74
     0
 49
0.0
 74
     0
 49
-3.0
 74
     0
 49
0.0
 74
     0
 49
-3.0
 74
     0
 49
0.0
 74
     0
 49
-3.0
 74
     0
  0
LTYPE
  5
72
330
5
100
AcDbSymbolTableRecord
100
AcDbLinetypeTableRecord
  2
ACAD_ISO15W100
 70
     0
  3
ISO double-dash triple-dot __ __ . . . __ __ . 
 72
    65
 73
    10
 40
39.0
 49
12.0
 74
     0
 49
-3.0
 74
     0
 49
12.0
 74
     0
 49
-3.0
 74
     0
 49
0.0
 74
     0
 49
-3.0
 74
     0
 49
0.0
 74
     0
 49
-3.0
 74
     0
 49
0.0
 74
     0
 49
-3.0
 74
     0
  0
LTYPE
  5
75
330
5
100
AcDbSymbolTableRecord
100
AcDbLinetypeTableRecord
  2
FENCELINE1
 70
     0
  3
Fenceline circle ----0-----0----0-----0----0---
 72
    65
 73
     4
 40
36.83
 49
6.349999999999999
 74
     0
 49
-2.54
 74
     4
 75
   133
340
74
 46
2.54
 50
0.0
 44
-2.54
 45
0.0
 49
-2.54
 74
     0
 49
25.4
 74
     0
  0
LTYPE
  5
76
330
5
100
AcDbSymbolTableRecord
100
AcDbLinetypeTableRecord
  2
FENCELINE2
 70
     0
  3
Fenceline square ----[]-----[]----[]-----[]----
 72
    65
 73
     4
 40
36.83
 49
6.349999999999999
 74
     0
 49
-2.54
 74
     4
 75
   132
340
74
 46
2.54
 50
0.0
 44
-2.54
 45
0.0
 49
-2.54
 74
     0
 49
25.4
 74
     0
  0
LTYPE
  5
77
330
5
100
AcDbSymbolTableRecord
100
AcDbLinetypeTableRecord
  2
TRACKS
 70
     0
  3
Tracks -|-|-|-|-|-|-|-|-|-|-|-|-|-|-|-|-|-|-|-|
 72
    65
 73
     2
 40
7.62
 49
3.81
 74
     4
 75
   130
340
74
 46
6.349999999999999
 50
0.0
 44
0.0
 45
0.0
 49
3.81
 74
     0
  0
LTYPE
  5
78
330
5
100
AcDbSymbolTableRecord
100
AcDbLinetypeTableRecord
  2
BATTING
 70
     0
  3
Batting SSSSSSSSSSSSSSSSSSSSSSSSSSSSSSSSSSSSSSS
 72
    65
 73
     4
 40
10.16254
 49
0.00254
 74
     0
 49
-2.54
 74
     4
 75
   134
340
74
 46
2.54
 50
0.0
 44
-2.54
 45
0.0
 49
-5.08
 74
     4
 75
   134
340
74
 46
2.54
 50
180.0
 44
2.54
 45
0.0
 49
-2.54
 74
     0
  0
LTYPE
  5
79
330
5
100
AcDbSymbolTableRecord
100
AcDbLinetypeTableRecord
  2
HOT_WATER_SUPPLY
 70
     0
  3
Hot water supply ---- HW ---- HW ---- HW ----
 72
    65
 73
     3
 40
22.86
 49
12.7
 74
     0
 49
-5.08
 74
     2
 75
     0
340
26
 46
2.54
 50
0.0
 44
-2.54
 45
-1.27
  9
HW
 49
-5.08
 74
     0
  0
LTYPE
  5
7A
330
5
100
AcDbSymbolTableRecord
100
AcDbLinetypeTableRecord
  2
GAS_LINE
 70
     0
  3
Gas line ----GAS----GAS----GAS----GAS----GAS---
 72
    65
 73
     3
 40
24.13
 49
12.7
 74
     0
 49
-5.08
 74
     2
 75
     0
340
26
 46
2.54
 50
0.0
 44
-2.54
 45
-1.27
  9
GAS
 49
-6.349999999999999
 74
     0
  0
LTYPE
  5
7B
330
5
100
AcDbSymbolTableRecord
100
AcDbLinetypeTableRecord
  2
ZIGZAG
 70
     0
  3
Zig zag /\/\/\/\/\/\/\/\/\/\/\/\/\/\/\/\/\/\/\/
 72
    65
 73
     4
 40
20.32254
 49
0.00254
 74
     0
 49
-5.08
 74
     4
 75
   131
340
74
 46
5.08
 50
0.0
 44
-5.08
 45
0.0
 49
-10.16
 74
     4
 75
   131
340
74
 46
5.08
 50
180.0
 44
5.08
 45
0.0
 49
-5.08
 74
     0
  0
ENDTAB
  0
TABLE
  2
LAYER
  5
2
330
0
100
AcDbSymbolTable
 70
    74
  0
LAYER
  5
25
330
2
100
AcDbSymbolTableRecord
100
AcDbLayerTableRecord
  2
0
 70
     0
 62
     7
  6
Continuous
370
    -3
390
F
  0
LAYER
  5
90
330
2
100
AcDbSymbolTableRecord
100
AcDbLayerTableRecord
  2
Bemaßungen(TC_020513_DIN)
 70
     0
 62
     7
  6
Continuous
370
    25
390
F
  0
LAYER
  5
A2
330
2
100
AcDbSymbolTableRecord
100
AcDbLayerTableRecord
  2
Mittellinie(TC_020513_DIN)
 70
     0
 62
     7
  6
DASH_DOT
370
    25
390
F
  0
LAYER
  5
A4
330
2
100
AcDbSymbolTableRecord
100
AcDbLayerTableRecord
  2
Mittelpunktmarkierung(TC_020513_DIN)
 70
     0
 62
     7
  6
Continuous
370
    25
390
F
  0
LAYER
  5
AD
330
2
100
AcDbSymbolTableRecord
100
AcDbLayerTableRecord
  2
Schraffur
 70
     0
 62
   179
  6
Continuous
370
     9
390
F
  0
LAYER
  5
AF
330
2
100
AcDbSymbolTableRecord
100
AcDbLayerTableRecord
  2
Sichtbare Kanten(TC_020513_DIN)
 70
     0
 62
     7
  6
Continuous
370
    50
390
F
  0
LAYER
  5
B2
330
2
100
AcDbSymbolTableRecord
100
AcDbLayerTableRecord
  2
Skizziergeometrie(ISO)
 70
     0
 62
     7
  6
Continuous
370
    50
390
F
  0
LAYER
  5
B5
330
2
100
AcDbSymbolTableRecord
100
AcDbLayerTableRecord
  2
Skizzierlinie(TC_020513_DIN)
 70
     1
 62
     3
  6
Continuous
370
    18
390
F
  0
LAYER
  5
B7
330
2
100
AcDbSymbolTableRecord
100
AcDbLayerTableRecord
  2
Stich 1-Linien(TC_020513_DIN)
 70
     0
 62
     7
  6
DASHED_SPACE
370
    25
390
F
  0
LAYER
  5
BA
330
2
100
AcDbSymbolTableRecord
100
AcDbLayerTableRecord
  2
Symbole(ISO)
 70
     0
 62
     7
  6
Continuous
370
    25
390
F
  0
LAYER
  5
3F7
330
2
100
AcDbSymbolTableRecord
100
AcDbLayerTableRecord
  2
Defpoints
 70
     0
 62
     7
  6
Continuous
290
     0
370
    -3
390
F
  0
ENDTAB
  0
TABLE
  2
STYLE
  5
3
330
0
100
AcDbSymbolTable
 70
    17
  0
STYLE
  5
26
330
3
100
AcDbSymbolTableRecord
100
AcDbTextStyleTableRecord
  2
Standard
 70
     0
 40
0.0
 41
1.0
 50
0.0
 71
     0
 42
0.2
  3
ARIAL.TTF
  4

1001
ACAD
1000
Arial
1071
      256
  0
STYLE
  5
74
330
3
100
AcDbSymbolTableRecord
100
AcDbTextStyleTableRecord
  2

 70
     1
 40
0.0
 41
1.0
 50
0.0
 71
     0
 42
0.2
  3
ltypeshp.shx
  4

  0
STYLE
  5
C4
330
3
100
AcDbSymbolTableRecord
100
AcDbTextStyleTableRecord
  2
Aktuell-BSI
 70
     0
 40
0.0
 41
1.0
 50
0.0
 71
     0
 42
0.2
  3
ARIAL.TTF
  4

1001
ACAD
1000
Arial
1071
      256
  0
STYLE
  5
C5
330
3
100
AcDbSymbolTableRecord
100
AcDbTextStyleTableRecord
  2
Kopie von TC 5 mm
 70
     0
 40
0.0
 41
1.199999928474426
 50
0.0
 71
     0
 42
0.2
  3
ARIAL.TTF
  4

1001
ACAD
1000
Arial
1071
      256
  0
STYLE
  5
C6
330
3
100
AcDbSymbolTableRecord
100
AcDbTextStyleTableRecord
  2
STANDARD-TC_020513_DIN
 70
     0
 40
0.0
 41
1.0
 50
0.0
 71
     0
 42
0.2
  3
ARIAL.TTF
  4

1001
ACAD
1000
Arial
1071
      256
  0
STYLE
  5
C7
330
3
100
AcDbSymbolTableRecord
100
AcDbTextStyleTableRecord
  2
STANDARD-TC_020513_DINGroßer Text
 70
     0
 40
0.0
 41
1.0
 50
0.0
 71
     0
 42
0.2
  3
ARIAL.TTF
  4

1001
ACAD
1000
Arial
1071
      256
  0
STYLE
  5
C8
330
3
100
AcDbSymbolTableRecord
100
AcDbTextStyleTableRecord
  2
STANDARD-TC_020513_DINNach Layer
 70
     0
 40
0.0
 41
1.0
 50
0.0
 71
     0
 42
0.2
  3
ARIAL.TTF
  4

1001
ACAD
1000
Arial
1071
      256
  0
STYLE
  5
C9
330
3
100
AcDbSymbolTableRecord
100
AcDbTextStyleTableRecord
  2
TC 2_5 mm
 70
     0
 40
0.0
 41
0.899999976158142
 50
0.0
 71
     0
 42
0.2
  3
ARIAL.TTF
  4

1001
ACAD
1000
Arial
1071
      256
  0
STYLE
  5
CA
330
3
100
AcDbSymbolTableRecord
100
AcDbTextStyleTableRecord
  2
TC 3_5 mm
 70
     0
 40
0.0
 41
0.7999999523162842
 50
0.0
 71
     0
 42
0.2
  3
ARIAL.TTF
  4

1001
ACAD
1000
Arial
1071
      256
  0
STYLE
  5
CB
330
3
100
AcDbSymbolTableRecord
100
AcDbTextStyleTableRecord
  2
TC 3_5 mmGroßer Text
 70
     0
 40
0.0
 41
0.899999976158142
 50
0.0
 71
     0
 42
0.2
  3
ARIAL.TTF
  4

1001
ACAD
1000
Arial
1071
      256
  0
STYLE
  5
CC
330
3
100
AcDbSymbolTableRecord
100
AcDbTextStyleTableRecord
  2
TC 3_5 mmNach Layer
 70
     0
 40
0.0
 41
0.899999976158142
 50
0.0
 71
     0
 42
0.2
  3
ARIAL.TTF
  4

1001
ACAD
1000
Arial
1071
      256
  0
STYLE
  5
CD
330
3
100
AcDbSymbolTableRecord
100
AcDbTextStyleTableRecord
  2
TC 4 mm
 70
     0
 40
0.0
 41
1.199999928474426
 50
0.0
 71
     0
 42
0.2
  3
ARIAL.TTF
  4

1001
ACAD
1000
Arial
1071
      256
  0
STYLE
  5
CE
330
3
100
AcDbSymbolTableRecord
100
AcDbTextStyleTableRecord
  2
TC 5 mm
 70
     0
 40
0.0
 41
0.899999976158142
 50
0.0
 71
     0
 42
0.2
  3
ARIAL.TTF
  4

1001
ACAD
1000
Arial
1071
      256
  0
STYLE
  5
CF
330
3
100
AcDbSymbolTableRecord
100
AcDbTextStyleTableRecord
  2
TC 5 mmNach Layer
 70
     0
 40
0.0
 41
0.899999976158142
 50
0.0
 71
     0
 42
0.2
  3
ARIAL.TTF
  4

1001
ACAD
1000
Arial
1071
      256
  0
STYLE
  5
D0
330
3
100
AcDbSymbolTableRecord
100
AcDbTextStyleTableRecord
  2
TC 7 mm
 70
     0
 40
0.0
 41
0.899999976158142
 50
0.0
 71
     0
 42
0.2
  3
ARIAL.TTF
  4

1001
ACAD
1000
Arial
1071
      256
  0
STYLE
  5
F9
330
3
100
AcDbSymbolTableRecord
100
AcDbTextStyleTableRecord
  2
TC 2_5 mm-ISOCPEUR
 70
     0
 40
0.0
 41
0.899999976158142
 50
0.0
 71
     0
 42
0.2
  3
isocpeur.ttf
  4

1001
ACAD
1000
ISOCPEUR
1071
      256
  0
STYLE
  5
FD
330
3
100
AcDbSymbolTableRecord
100
AcDbTextStyleTableRecord
  2
TC 3_5 mm-ISOCPEUR
 70
     0
 40
0.0
 41
0.899999976158142
 50
0.0
 71
     0
 42
0.2
  3
isocpeur.ttf
  4

1001
ACAD
1000
ISOCPEUR
1071
      256
  0
ENDTAB
  0
TABLE
  2
VIEW
  5
6
330
0
100
AcDbSymbolTable
 70
     0
  0
ENDTAB
  0
TABLE
  2
UCS
  5
7
330
0
100
AcDbSymbolTable
 70
     0
  0
ENDTAB
  0
TABLE
  2
APPID
  5
9
330
0
100
AcDbSymbolTable
 70
     1
  0
APPID
  5
27
330
9
100
AcDbSymbolTableRecord
100
AcDbRegAppTableRecord
  2
ACAD
 70
     0
  0
ENDTAB
  0
TABLE
  2
DIMSTYLE
  5
A
330
0
100
AcDbSymbolTable
 70
    17
100
AcDbDimStyleTable
 71
     2
340
D1
340
3F
  0
DIMSTYLE
105
3F
330
A
100
AcDbSymbolTableRecord
100
AcDbDimStyleTableRecord
  2
Standard
 70
     0
340
26
  0
DIMSTYLE
105
D1
102
{ACAD_REACTORS
330
3F6
330
4C6
330
581
330
641
330
706
330
7CB
330
890
102
}
330
A
100
AcDbSymbolTableRecord
100
AcDbDimStyleTableRecord
  2
STANDARD-TC_020513_DIN
 70
     0
 41
2.5
 42
1.0
 43
6.0
 44
2.0
 45
0.00000001
 46
10.0
 73
     0
 74
     0
 77
     1
 78
    12
 79
     3
140
3.5
143
0.03937
147
0.8
171
     3
172
     1
176
     7
177
     7
178
     7
271
     2
272
     2
274
     3
278
    44
340
C4
371
    25
372
    25
  0
DIMSTYLE
105
D2
330
A
100
AcDbSymbolTableRecord
100
AcDbDimStyleTableRecord
  2
STANDARD-TC_020513_DIN$7
 70
     0
 41
2.5
 42
1.0
 43
6.0
 44
2.0
 45
0.00000001
 46
10.0
 73
     0
 74
     0
 77
     1
 78
    12
 79
     3
140
3.5
143
0.03937
147
0.8
171
     3
172
     1
176
     7
177
     7
178
     7
271
     2
272
     2
274
     3
278
    44
340
C4
371
    25
372
    25
  0
DIMSTYLE
105
D3
330
A
100
AcDbSymbolTableRecord
100
AcDbDimStyleTableRecord
  2
STANDARD-TC_020513_DINGroßer Text
 70
     0
 41
5.0
 42
0.0
 43
6.0
 44
3.174999999999999
 45
0.00000001
 46
10.0
 73
     0
 74
     0
 77
     1
140
5.25
143
0.03937
146
0.6666666666666666
147
0.8
171
     3
172
     1
176
     7
177
     7
178
     7
271
     2
272
     2
274
     3
278
    44
340
C7
371
    25
372
    25
  0
DIMSTYLE
105
D4
330
A
100
AcDbSymbolTableRecord
100
AcDbDimStyleTableRecord
  2
STANDARD-TC_020513_DINGroßer Text$7
 70
     0
 41
5.0
 42
0.0
 43
6.0
 44
3.174999999999999
 45
0.00000001
 46
10.0
 73
     0
 74
     0
 77
     1
140
5.25
143
0.03937
146
0.6666666666666666
147
0.8
171
     3
172
     1
176
     7
177
     7
178
     7
271
     2
272
     2
274
     3
278
    44
340
C7
371
    25
372
    25
  0
DIMSTYLE
105
D5
330
A
100
AcDbSymbolTableRecord
100
AcDbDimStyleTableRecord
  2
Teccon Kiel Stil
 70
     0
 41
2.5
 42
0.0
 43
7.0
 44
2.0
 45
0.00000001
 46
10.0
 73
     0
 74
     0
 77
     1
 78
    12
 79
     3
140
3.5
143
0.03937
147
1.0
171
     3
172
     1
176
     7
177
     7
178
     7
179
     1
271
     1
272
     2
274
     3
278
    44
340
CA
371
    25
372
    25
  0
DIMSTYLE
105
D6
330
A
100
AcDbSymbolTableRecord
100
AcDbDimStyleTableRecord
  2
Teccon Kiel Stil$7
 70
     0
 41
2.5
 42
0.0
 43
7.0
 44
2.0
 45
0.00000001
 46
10.0
 73
     0
 74
     0
 77
     1
 78
    12
 79
     3
140
3.5
143
0.03937
147
1.0
171
     3
172
     1
176
     7
177
     7
178
     7
179
     1
271
     1
272
     2
274
     3
278
    44
340
CA
371
    25
372
    25
  0
DIMSTYLE
105
D7
330
A
100
AcDbSymbolTableRecord
100
AcDbDimStyleTableRecord
  2
Teccon Kiel StilGroßer Text
 70
     0
 41
5.0
 42
0.0
 43
7.0
 44
2.0
 45
0.00000001
 46
10.0
 73
     0
 74
     0
 77
     1
 78
    12
 79
     3
140
5.25
143
0.03937
146
0.6666666666666666
147
1.0
171
     3
172
     1
176
     7
177
     7
178
     7
179
     1
271
     1
272
     2
274
     3
278
    44
340
CB
371
    25
372
    25
  0
DIMSTYLE
105
D8
330
A
100
AcDbSymbolTableRecord
100
AcDbDimStyleTableRecord
  2
Teccon Kiel StilGroßer Text$7
 70
     0
 41
5.0
 42
0.0
 43
7.0
 44
2.0
 45
0.00000001
 46
10.0
 73
     0
 74
     0
 77
     1
 78
    12
 79
     3
140
5.25
143
0.03937
146
0.6666666666666666
147
1.0
171
     3
172
     1
176
     7
177
     7
178
     7
179
     1
271
     1
272
     2
274
     3
278
    44
340
CB
371
    25
372
    25
  0
DIMSTYLE
105
D9
330
A
100
AcDbSymbolTableRecord
100
AcDbDimStyleTableRecord
  2
Führungslinie-Ursprungsindikator(ISO)
 70
     0
 41
2.5
340
26
342
DA
  0
DIMSTYLE
105
E1
330
A
100
AcDbSymbolTableRecord
100
AcDbDimStyleTableRecord
  2
Führungslinie-Ursprungsindikator(TC_020513_DIN)
 70
     0
 41
2.5
340
26
342
DA
  0
DIMSTYLE
105
EC
330
A
100
AcDbSymbolTableRecord
100
AcDbDimStyleTableRecord
  2
Führungslinie - Bezugsstelle(ISO)
 70
     0
 41
2.5
340
26
342
DA
  0
DIMSTYLE
105
ED
330
A
100
AcDbSymbolTableRecord
100
AcDbDimStyleTableRecord
  2
Führungslinie - Bezugsstelle(TC_020513_DIN)
 70
     0
 41
2.5
340
26
342
DA
  0
DIMSTYLE
105
EE
330
A
100
AcDbSymbolTableRecord
100
AcDbDimStyleTableRecord
  2
Führungslinie - Punkt(ISO)
 70
     0
 41
2.5
340
26
342
DA
  0
DIMSTYLE
105
EF
330
A
100
AcDbSymbolTableRecord
100
AcDbDimStyleTableRecord
  2
Führungslinie - Punkt(TC_020513_DIN)
 70
     0
 41
2.5
340
26
342
DA
  0
DIMSTYLE
105
F0
330
A
100
AcDbSymbolTableRecord
100
AcDbDimStyleTableRecord
  2
Führungslinie(ISO)
 70
     0
 41
2.5
340
26
342
DA
  0
DIMSTYLE
105
F1
330
A
100
AcDbSymbolTableRecord
100
AcDbDimStyleTableRecord
  2
Führungslinie(TC_020513_DIN)
 70
     0
 41
2.5
340
26
342
DA
  0
ENDTAB
  0
TABLE
  2
BLOCK_RECORD
  5
1
330
0
100
AcDbSymbolTable
 70
    18
  0
BLOCK_RECORD
  5
37
330
1
100
AcDbSymbolTableRecord
100
AcDbBlockTableRecord
  2
*Model_Space
340
3A
  0
BLOCK_RECORD
  5
33
330
1
100
AcDbSymbolTableRecord
100
AcDbBlockTableRecord
  2
*Paper_Space
340
36
  0
BLOCK_RECORD
  5
3B
330
1
100
AcDbSymbolTableRecord
100
AcDbBlockTableRecord
  2
*Paper_Space0
340
3E
  0
BLOCK_RECORD
  5
DA
330
1
100
AcDbSymbolTableRecord
100
AcDbBlockTableRecord
  2
_Closed
340
0
  0
BLOCK_RECORD
  5
E2
330
1
100
AcDbSymbolTableRecord
100
AcDbBlockTableRecord
  2
DatumFilled45
340
0
  0
BLOCK_RECORD
  5
F2
330
1
100
AcDbSymbolTableRecord
100
AcDbBlockTableRecord
  2
DIN 6930 (Toleranzklasse)
340
0
  0
BLOCK_RECORD
  5
103
330
1
100
AcDbSymbolTableRecord
100
AcDbBlockTableRecord
  2
nicht bemaßte Radien
340
0
  0
BLOCK_RECORD
  5
10C
330
1
100
AcDbSymbolTableRecord
100
AcDbBlockTableRecord
  2
DIN ISO 13715 (Werkstückkanten)
340
0
  0
BLOCK_RECORD
  5
130
330
1
100
AcDbSymbolTableRecord
100
AcDbBlockTableRecord
  2
EN 12329 (Chromatierung)
340
0
  0
BLOCK_RECORD
  5
138
330
1
100
AcDbSymbolTableRecord
100
AcDbBlockTableRecord
  2
ISO 2768 (zul. Abweichung)
340
0
  0
BLOCK_RECORD
  5
141
330
1
100
AcDbSymbolTableRecord
100
AcDbBlockTableRecord
  2
DIN ISO 1302 (Oberflächen)
340
0
  0
BLOCK_RECORD
  5
149
330
1
100
AcDbSymbolTableRecord
100
AcDbBlockTableRecord
  2
Ränder Ilme Rahmen A4 quer
340
0
102
{BLKREFS
331
153
102
}
  0
BLOCK_RECORD
  5
154
330
1
100
AcDbSymbolTableRecord
100
AcDbBlockTableRecord
  2
Schriftfelder Ilme
340
0
102
{BLKREFS
331
1C7
102
}
  0
BLOCK_RECORD
  5
3F8
330
1
100
AcDbSymbolTableRecord
100
AcDbBlockTableRecord
  2
*D11
340
0
  0
BLOCK_RECORD
  5
4C7
330
1
100
AcDbSymbolTableRecord
100
AcDbBlockTableRecord
  2
*D12
340
0
  0
BLOCK_RECORD
  5
582
330
1
100
AcDbSymbolTableRecord
100
AcDbBlockTableRecord
  2
*D13
340
0
  0
BLOCK_RECORD
  5
642
330
1
100
AcDbSymbolTableRecord
100
AcDbBlockTableRecord
  2
*D14
340
0
  0
BLOCK_RECORD
  5
707
330
1
100
AcDbSymbolTableRecord
100
AcDbBlockTableRecord
  2
*D15
340
0
  0
BLOCK_RECORD
  5
7CC
330
1
100
AcDbSymbolTableRecord
100
AcDbBlockTableRecord
  2
*D16
340
0
  0
BLOCK_RECORD
  5
891
330
1
100
AcDbSymbolTableRecord
100
AcDbBlockTableRecord
  2
*D17
340
0
  0
ENDTAB
  0
ENDSEC
  0
SECTION
  2
BLOCKS
  0
BLOCK
  5
38
330
37
100
AcDbEntity
  8
0
100
AcDbBlockBegin
  2
*Model_Space
 70
     0
 10
0.0
 20
0.0
 30
0.0
  3
*Model_Space
  1

  0
ENDBLK
  5
39
330
37
100
AcDbEntity
  8
0
100
AcDbBlockEnd
  0
BLOCK
  5
34
330
33
100
AcDbEntity
 67
     1
  8
0
100
AcDbBlockBegin
  2
*Paper_Space
 70
     0
 10
0.0
 20
0.0
 30
0.0
  3
*Paper_Space
  1

  0
ENDBLK
  5
35
330
33
100
AcDbEntity
 67
     1
  8
0
100
AcDbBlockEnd
  0
BLOCK
  5
3C
330
3B
100
AcDbEntity
 67
     1
  8
0
100
AcDbBlockBegin
  2
*Paper_Space0
 70
     0
 10
0.0
 20
0.0
 30
0.0
  3
*Paper_Space0
  1

  0
ENDBLK
  5
3D
330
3B
100
AcDbEntity
 67
     1
  8
0
100
AcDbBlockEnd
  0
BLOCK
  5
DF
330
DA
100
AcDbEntity
  8
0
100
AcDbBlockBegin
  2
_Closed
 70
     0
 10
0.0
 20
0.0
 30
0.0
  3
_Closed
  1

  0
LINE
  5
DB
330
DA
100
AcDbEntity
  8
0
  6
ByBlock
 62
     0
370
    -2
100
AcDbLine
 10
-1.0
 20
0.1666666666666666
 30
0.0
 11
0.0
 21
0.0
 31
0.0
  0
LINE
  5
DC
330
DA
100
AcDbEntity
  8
0
  6
ByBlock
 62
     0
370
    -2
100
AcDbLine
 10
0.0
 20
0.0
 30
0.0
 11
-1.0
 21
-0.1666666666666666
 31
0.0
  0
LINE
  5
DD
330
DA
100
AcDbEntity
  8
0
  6
ByBlock
 62
     0
370
    -2
100
AcDbLine
 10
-1.0
 20
0.1666666666666666
 30
0.0
 11
-1.0
 21
-0.1666666666666666
 31
0.0
  0
LINE
  5
DE
330
DA
100
AcDbEntity
  8
0
  6
ByBlock
 62
     0
370
    -2
100
AcDbLine
 10
0.0
 20
0.0
 30
0.0
 11
-1.0
 21
0.0
 31
0.0
  0
ENDBLK
  5
E0
330
DA
100
AcDbEntity
  8
0
100
AcDbBlockEnd
  0
BLOCK
  5
E3
330
E2
100
AcDbEntity
  8
0
100
AcDbBlockBegin
  2
DatumFilled45
 70
     0
 10
0.0
 20
0.0
 30
0.0
  3
DatumFilled45
  1

  0
POLYLINE
  5
E5
330
E2
100
AcDbEntity
  8
0
 62
     0
100
AcDb2dPolyline
 66
     1
 10
0.0
 20
0.0
 30
0.0
 70
   128
  0
VERTEX
  5
E6
330
E5
100
AcDbEntity
  8
0
 62
     0
100
AcDbVertex
100
AcDb2dVertex
 10
0.0
 20
1.0
 30
0.0
  0
VERTEX
  5
E7
330
E5
100
AcDbEntity
  8
0
 62
     0
100
AcDbVertex
100
AcDb2dVertex
 10
0.0
 20
-1.0
 30
0.0
  0
VERTEX
  5
E9
330
E5
100
AcDbEntity
  8
0
 62
     0
100
AcDbVertex
100
AcDb2dVertex
 10
-1.0
 20
0.0
 30
0.0
  0
VERTEX
  5
EA
330
E5
100
AcDbEntity
  8
0
 62
     0
100
AcDbVertex
100
AcDb2dVertex
 10
0.0
 20
1.0
 30
0.0
  0
SEQEND
  5
E8
330
E5
100
AcDbEntity
  8
0
 62
     0
  0
SOLID
  5
EB
330
E2
100
AcDbEntity
  8
0
 62
     0
100
AcDbTrace
 10
0.0
 20
1.0
 30
0.0
 11
0.0
 21
-1.0
 31
0.0
 12
-1.0
 22
0.0
 32
0.0
 13
0.0
 23
1.0
 33
0.0
  0
ENDBLK
  5
E4
330
E2
100
AcDbEntity
  8
0
100
AcDbBlockEnd
  0
BLOCK
  5
F3
330
F2
100
AcDbEntity
  8
0
100
AcDbBlockBegin
  2
DIN 6930 (Toleranzklasse)
 70
     2
 10
0.0
 20
0.0
 30
0.0
  3
DIN 6930 (Toleranzklasse)
  1

  0
LINE
  5
F5
330
F2
100
AcDbEntity
  8
Skizziergeometrie(ISO)
100
AcDbLine
 10
-49.99999999999999
 20
24.99999999999996
 30
0.0
 11
0.0
 21
24.99999999999996
 31
0.0
  0
LINE
  5
F6
330
F2
100
AcDbEntity
  8
Skizziergeometrie(ISO)
100
AcDbLine
 10
0.0
 20
24.99999999999996
 30
0.0
 11
0.0
 21
0.0
 31
0.0
  0
LINE
  5
F7
330
F2
100
AcDbEntity
  8
Skizziergeometrie(ISO)
100
AcDbLine
 10
0.0
 20
0.0
 30
0.0
 11
-49.99999999999999
 21
0.0
 31
0.0
  0
LINE
  5
F8
330
F2
100
AcDbEntity
  8
Skizziergeometrie(ISO)
100
AcDbLine
 10
-49.99999999999999
 20
0.0
 30
0.0
 11
-49.99999999999999
 21
24.99999999999996
 31
0.0
  0
MTEXT
  5
FA
102
{ACAD_XDICTIONARY
360
96A
102
}
330
F2
100
AcDbEntity
  8
Symbole(ISO)
 62
     7
100
AcDbMText
 10
-25.01617139266887
 20
22.49496284479633
 30
0.0
 40
2.5
 41
49.93534911063455
 71
     5
 72
     1
  1
F\U+00FCr spanlose Bearbeitung
  7
TC 2_5 mm-ISOCPEUR
 73
     1
 44
1.0
1001
ACAD
1000
MTEXTBEGIN
1070
    73
1070
     1
1070
    44
1040
1.0
1070
    74
1070
     0
1000
MTEXTEND
  0
MTEXT
  5
FC
330
F2
100
AcDbEntity
  8
Symbole(ISO)
 62
     7
100
AcDbMText
 10
-24.96550299476308
 20
17.97814514565743
 30
0.0
 40
2.5
 41
49.94698265738096
 71
     5
 72
     1
  1
Allgemeintoleranz
  7
TC 2_5 mm-ISOCPEUR
 73
     1
 44
1.0
1001
ACAD
1000
MTEXTBEGIN
1070
    73
1070
     1
1070
    44
1040
1.0
1070
    74
1070
     0
1000
MTEXTEND
  0
MTEXT
  5
FE
330
F2
100
AcDbEntity
  8
Symbole(ISO)
 62
     7
100
AcDbMText
 10
-22.00032990803074
 20
12.97814514565747
 30
0.0
 40
3.499999940395355
 41
28.04641142085023
 71
     6
 72
     1
  1
DIN 6930-
  7
TC 3_5 mm-ISOCPEUR
 73
     1
 44
1.0
1001
ACAD
1000
MTEXTBEGIN
1070
    73
1070
     1
1070
    44
1040
1.0
1070
    74
1070
     0
1000
MTEXTEND
  0
MTEXT
  5
FF
330
F2
100
AcDbEntity
  8
Symbole(ISO)
 62
     7
100
AcDbMText
 10
-24.98510412015335
 20
5.018941170990345
 30
0.0
 40
2.5
 41
50.05946813167525
 71
     5
 72
     1
  1
(zul. Abweichung der\PWinkelstellung DIN 6935)
  7
TC 2_5 mm-ISOCPEUR
 73
     2
 44
1.068348169326782
1001
ACAD
1000
MTEXTBEGIN
1070
    73
1070
     2
1070
    44
1040
1.068348169326782
1070
    74
1070
     0
1000
MTEXTEND
  0
ATTDEF
  5
100
330
F2
100
AcDbEntity
  8
Symbole(ISO)
 62
     7
100
AcDbText
 10
-21.93383492465724
 20
11.2184168455105
 30
0.0
 40
3.499999940395355
  1
 
 41
0.899999976158142
  7
TC 3_5 mm-ISOCPEUR
 11
-21.93383492465724
 21
12.96841681570818
 31
0.0
100
AcDbAttributeDefinition
  3
Toleranzklasse
  2
Toleranzklasse
 70
     0
 74
     2
  0
ENDBLK
  5
F4
330
F2
100
AcDbEntity
  8
0
100
AcDbBlockEnd
  0
BLOCK
  5
104
330
103
100
AcDbEntity
  8
0
100
AcDbBlockBegin
  2
nicht bemaßte Radien
 70
     2
 10
0.0
 20
0.0
 30
0.0
  3
nicht bemaßte Radien
  1

  0
LINE
  5
106
330
103
100
AcDbEntity
  8
Skizziergeometrie(ISO)
100
AcDbLine
 10
0.0
 20
0.0
 30
0.0
 11
-50.0
 21
0.0
 31
0.0
  0
LINE
  5
107
330
103
100
AcDbEntity
  8
Skizziergeometrie(ISO)
100
AcDbLine
 10
-50.0
 20
0.0
 30
0.0
 11
-50.0
 21
5.0
 31
0.0
  0
LINE
  5
108
330
103
100
AcDbEntity
  8
Skizziergeometrie(ISO)
100
AcDbLine
 10
-50.0
 20
5.0
 30
0.0
 11
0.0
 21
5.0
 31
0.0
  0
LINE
  5
109
330
103
100
AcDbEntity
  8
Skizziergeometrie(ISO)
100
AcDbLine
 10
0.0
 20
5.0
 30
0.0
 11
0.0
 21
0.0
 31
0.0
  0
MTEXT
  5
10A
102
{ACAD_XDICTIONARY
360
96C
102
}
330
103
100
AcDbEntity
  8
Symbole(ISO)
 62
     7
100
AcDbMText
 10
-28.98102517277721
 20
2.530616500783118
 30
0.0
 40
2.5
 41
41.95492584233122
 71
     5
 72
     1
  1
Alle nicht bema\U+00DFten Radien R
  7
TC 2_5 mm-ISOCPEUR
 73
     1
 44
1.0
1001
ACAD
1000
MTEXTBEGIN
1070
    73
1070
     1
1070
    44
1040
1.0
1070
    74
1070
     0
1000
MTEXTEND
  0
ATTDEF
  5
10B
330
103
100
AcDbEntity
  8
Symbole(ISO)
 62
     7
100
AcDbText
 10
-4.624331584212832
 20
1.293984431277515
 30
0.0
 40
2.5
  1
 
 41
0.899999976158142
  7
TC 2_5 mm-ISOCPEUR
 72
     1
 11
-3.949331602094225
 21
2.543984431277515
 31
0.0
100
AcDbAttributeDefinition
  3
Radius
  2
Radius
 70
     0
 74
     2
  0
ENDBLK
  5
105
330
103
100
AcDbEntity
  8
0
100
AcDbBlockEnd
  0
BLOCK
  5
10D
330
10C
100
AcDbEntity
  8
0
100
AcDbBlockBegin
  2
DIN ISO 13715 (Werkstückkanten)
 70
     2
 10
0.0
 20
0.0
 30
0.0
  3
DIN ISO 13715 (Werkstückkanten)
  1

  0
LINE
  5
10F
102
{ACAD_REACTORS
330
112
102
}
330
10C
100
AcDbEntity
  8
0
100
AcDbLine
 10
-35.0
 20
20.0
 30
0.0
 11
-32.75944236602587
 21
21.71924034067061
 31
0.0
  0
LINE
  5
110
102
{ACAD_REACTORS
330
112
102
}
330
10C
100
AcDbEntity
  8
0
100
AcDbLine
 10
-33.28075965932943
 20
22.24055763397416
 30
0.0
 11
-35.0
 21
20.0
 31
0.0
  0
LINE
  5
111
102
{ACAD_REACTORS
330
112
102
}
330
10C
100
AcDbEntity
  8
0
100
AcDbLine
 10
-32.75944236602587
 20
21.71924034067061
 30
0.0
 11
-33.28075965932943
 21
22.24055763397416
 31
0.0
  0
HATCH
  5
112
330
10C
100
AcDbEntity
  8
Schraffur
 62
     7
100
AcDbHatch
 10
0.0
 20
0.0
 30
0.0
210
0.0
220
0.0
230
1.0
  2
SOLID
 70
     1
 71
     1
 91
        1
 92
        1
 93
        3
 72
     1
 10
-35.0
 20
20.0
 11
-32.75944236602587
 21
21.71924034067061
 72
     1
 10
-32.75944236602587
 20
21.71924034067061
 11
-33.28075965932943
 21
22.24055763397416
 72
     1
 10
-33.28075965932943
 20
22.24055763397416
 11
-35.0
 21
20.0
 97
        3
330
10F
330
111
330
110
 75
     0
 76
     1
 98
        1
 10
0.0
 20
0.0
  0
LINE
  5
113
102
{ACAD_REACTORS
330
116
102
}
330
10C
100
AcDbEntity
  8
0
100
AcDbLine
 10
-20.00000000000003
 20
20.00000000000003
 30
0.0
 11
-17.7594423660259
 21
21.71924034067057
 31
0.0
  0
LINE
  5
114
102
{ACAD_REACTORS
330
116
102
}
330
10C
100
AcDbEntity
  8
0
100
AcDbLine
 10
-18.28075965932939
 20
22.24055763397406
 30
0.0
 11
-20.00000000000003
 21
20.00000000000003
 31
0.0
  0
LINE
  5
115
102
{ACAD_REACTORS
330
116
102
}
330
10C
100
AcDbEntity
  8
0
100
AcDbLine
 10
-17.7594423660259
 20
21.71924034067057
 30
0.0
 11
-18.28075965932939
 21
22.24055763397406
 31
0.0
  0
HATCH
  5
116
330
10C
100
AcDbEntity
  8
Schraffur
 62
     7
100
AcDbHatch
 10
0.0
 20
0.0
 30
0.0
210
0.0
220
0.0
230
1.0
  2
SOLID
 70
     1
 71
     1
 91
        1
 92
        1
 93
        3
 72
     1
 10
-20.00000000000003
 20
20.00000000000003
 11
-17.7594423660259
 21
21.71924034067057
 72
     1
 10
-17.7594423660259
 20
21.71924034067057
 11
-18.28075965932939
 21
22.24055763397406
 72
     1
 10
-18.28075965932939
 20
22.24055763397406
 11
-20.00000000000003
 21
20.00000000000003
 97
        3
330
113
330
115
330
114
 75
     0
 76
     1
 98
        1
 10
0.0
 20
0.0
  0
LINE
  5
117
330
10C
100
AcDbEntity
  8
Skizziergeometrie(ISO)
100
AcDbLine
 10
-39.89999999999998
 20
20.0
 30
0.0
 11
-35.0
 21
20.0
 31
0.0
  0
LINE
  5
118
330
10C
100
AcDbEntity
  8
Skizziergeometrie(ISO)
100
AcDbLine
 10
-35.0
 20
20.0
 30
0.0
 11
-34.99999999999996
 21
15.09999999999998
 31
0.0
  0
LINE
  5
119
330
10C
100
AcDbEntity
  8
Skizziergeometrie(ISO)
100
AcDbLine
 10
-20.00000000000003
 20
20.00000000000003
 30
0.0
 11
-15.10000000000005
 21
20.00000000000003
 31
0.0
  0
LINE
  5
11A
330
10C
100
AcDbEntity
  8
Skizziergeometrie(ISO)
100
AcDbLine
 10
-20.00000000000003
 20
20.00000000000003
 30
0.0
 11
-20.00000000000003
 21
24.90000000000002
 31
0.0
  0
LINE
  5
11B
330
10C
100
AcDbEntity
  8
Skizziergeometrie(ISO)
100
AcDbLine
 10
-35.0
 20
20.0
 30
0.0
 11
-31.28768939877062
 21
23.71231060122938
 31
0.0
  0
LINE
  5
11C
330
10C
100
AcDbEntity
  8
Skizziergeometrie(ISO)
100
AcDbLine
 10
-31.28768939877062
 20
23.71231060122938
 30
0.0
 11
-26.3876893987706
 21
23.71231060122938
 31
0.0
  0
LINE
  5
11D
330
10C
100
AcDbEntity
  8
Skizziergeometrie(ISO)
100
AcDbLine
 10
-35.0
 20
20.0
 30
0.0
 11
-33.28075965932943
 21
22.24055763397416
 31
0.0
  0
LINE
  5
11E
330
10C
100
AcDbEntity
  8
Skizziergeometrie(ISO)
100
AcDbLine
 10
-33.28075965932943
 20
22.24055763397416
 30
0.0
 11
-32.75944236602587
 21
21.71924034067061
 31
0.0
  0
LINE
  5
11F
330
10C
100
AcDbEntity
  8
Skizziergeometrie(ISO)
100
AcDbLine
 10
-32.75944236602587
 20
21.71924034067061
 30
0.0
 11
-35.0
 21
20.0
 31
0.0
  0
LINE
  5
120
330
10C
100
AcDbEntity
  8
Skizziergeometrie(ISO)
100
AcDbLine
 10
-31.28768939877062
 20
23.71231060122938
 30
0.0
 11
-31.28768939877062
 21
28.61231060122936
 31
0.0
  0
LINE
  5
121
330
10C
100
AcDbEntity
  8
Skizziergeometrie(ISO)
100
AcDbLine
 10
-18.02010101267761
 20
21.97989898732235
 30
0.0
 11
-16.28768939877059
 21
23.71231060122938
 31
0.0
  0
LINE
  5
122
330
10C
100
AcDbEntity
  8
Skizziergeometrie(ISO)
100
AcDbLine
 10
-16.28768939877059
 20
23.71231060122938
 30
0.0
 11
-11.3876893987706
 21
23.71231060122938
 31
0.0
  0
LINE
  5
123
330
10C
100
AcDbEntity
  8
Skizziergeometrie(ISO)
100
AcDbLine
 10
-20.00000000000003
 20
20.00000000000003
 30
0.0
 11
-18.28075965932939
 21
22.24055763397406
 31
0.0
  0
LINE
  5
124
330
10C
100
AcDbEntity
  8
Skizziergeometrie(ISO)
100
AcDbLine
 10
-18.28075965932939
 20
22.24055763397406
 30
0.0
 11
-17.7594423660259
 21
21.71924034067057
 31
0.0
  0
LINE
  5
125
330
10C
100
AcDbEntity
  8
Skizziergeometrie(ISO)
100
AcDbLine
 10
-17.7594423660259
 20
21.71924034067057
 30
0.0
 11
-20.00000000000003
 21
20.00000000000003
 31
0.0
  0
LINE
  5
126
330
10C
100
AcDbEntity
  8
Skizziergeometrie(ISO)
100
AcDbLine
 10
-16.28768939877059
 20
23.71231060122938
 30
0.0
 11
-16.28768939877059
 21
28.61231060122936
 31
0.0
  0
LINE
  5
127
330
10C
100
AcDbEntity
  8
Skizziergeometrie(ISO)
100
AcDbLine
 10
-49.99999999999999
 20
35.0
 30
0.0
 11
0.0
 21
35.0
 31
0.0
  0
LINE
  5
128
330
10C
100
AcDbEntity
  8
Skizziergeometrie(ISO)
100
AcDbLine
 10
0.0
 20
35.0
 30
0.0
 11
0.0
 21
0.0
 31
0.0
  0
LINE
  5
129
330
10C
100
AcDbEntity
  8
Skizziergeometrie(ISO)
100
AcDbLine
 10
0.0
 20
0.0
 30
0.0
 11
-49.99999999999999
 21
0.0
 31
0.0
  0
LINE
  5
12A
330
10C
100
AcDbEntity
  8
Skizziergeometrie(ISO)
100
AcDbLine
 10
-49.99999999999999
 20
0.0
 30
0.0
 11
-49.99999999999999
 21
35.0
 31
0.0
  0
MTEXT
  5
12B
102
{ACAD_XDICTIONARY
360
96E
102
}
330
10C
100
AcDbEntity
  8
Symbole(ISO)
 62
     7
100
AcDbMText
 10
-24.97893135154584
 20
10.23779293592927
 30
0.0
 40
3.499999940395355
 41
49.9873458157533
 71
     5
 72
     1
  1
Werkst\U+00FCckkanten\Pnach ISO 13715
  7
TC 3_5 mm-ISOCPEUR
 73
     2
 44
1.068348169326782
1001
ACAD
1000
MTEXTBEGIN
1070
    73
1070
     2
1070
    44
1040
1.068348169326782
1070
    74
1070
     0
1000
MTEXTEND
  0
ATTDEF
  5
12C
330
10C
100
AcDbEntity
  8
Symbole(ISO)
 62
     7
100
AcDbText
 10
-30.16177492853139
 20
24.5808246293851
 30
0.0
 40
2.5
  1
 
 41
0.899999976158142
  7
TC 2_5 mm-ISOCPEUR
 11
-30.16177492853139
 21
25.8308246293851
 31
0.0
100
AcDbAttributeDefinition
  3
AK unten
  2
AK_unten
 70
     0
 74
     2
  0
ATTDEF
  5
12D
330
10C
100
AcDbEntity
  8
Symbole(ISO)
 62
     7
100
AcDbText
 10
-30.17792390794348
 20
27.58528770975683
 30
0.0
 40
2.5
  1
 
 41
0.899999976158142
  7
TC 2_5 mm-ISOCPEUR
 11
-30.17792390794348
 21
28.83528770975683
 31
0.0
100
AcDbAttributeDefinition
  3
AK oben
  2
AK_oben
 70
     0
 74
     2
  0
ATTDEF
  5
12E
330
10C
100
AcDbEntity
  8
Symbole(ISO)
 62
     7
100
AcDbText
 10
-15.11922386270676
 20
24.61259748150297
 30
0.0
 40
2.5
  1
 
 41
0.899999976158142
  7
TC 2_5 mm-ISOCPEUR
 11
-15.11922386270676
 21
25.86259748150297
 31
0.0
100
AcDbAttributeDefinition
  3
IK unten
  2
IK_unten
 70
     0
 74
     2
  0
ATTDEF
  5
12F
330
10C
100
AcDbEntity
  8
Symbole(ISO)
 62
     7
100
AcDbText
 10
-15.14487582203273
 20
27.61806754523864
 30
0.0
 40
2.5
  1
 
 41
0.899999976158142
  7
TC 2_5 mm-ISOCPEUR
 11
-15.14487582203273
 21
28.86806754523864
 31
0.0
100
AcDbAttributeDefinition
  3
IK oben
  2
IK_oben
 70
     0
 74
     2
  0
ENDBLK
  5
10E
330
10C
100
AcDbEntity
  8
0
100
AcDbBlockEnd
  0
BLOCK
  5
131
330
130
100
AcDbEntity
  8
0
100
AcDbBlockBegin
  2
EN 12329 (Chromatierung)
 70
     0
 10
0.0
 20
0.0
 30
0.0
  3
EN 12329 (Chromatierung)
  1

  0
LINE
  5
133
330
130
100
AcDbEntity
  8
Skizziergeometrie(ISO)
100
AcDbLine
 10
0.0
 20
0.0
 30
0.0
 11
-50.0
 21
0.0
 31
0.0
  0
LINE
  5
134
330
130
100
AcDbEntity
  8
Skizziergeometrie(ISO)
100
AcDbLine
 10
-50.0
 20
0.0
 30
0.0
 11
-50.0
 21
15.0
 31
0.0
  0
LINE
  5
135
330
130
100
AcDbEntity
  8
Skizziergeometrie(ISO)
100
AcDbLine
 10
-50.0
 20
15.0
 30
0.0
 11
0.0
 21
15.00000000000003
 31
0.0
  0
LINE
  5
136
330
130
100
AcDbEntity
  8
Skizziergeometrie(ISO)
100
AcDbLine
 10
0.0
 20
15.00000000000003
 30
0.0
 11
0.0
 21
0.0
 31
0.0
  0
MTEXT
  5
137
330
130
100
AcDbEntity
  8
Symbole(ISO)
 62
     7
100
AcDbMText
 10
-24.98833105758937
 20
7.490142772208123
 30
0.0
 40
2.5
 41
49.83545872181219
 71
     5
 72
     1
  1
Verzinkt FE / ZN / C\PEN 12329\P(gelb chromatiert)
  7
TC 2_5 mm-ISOCPEUR
 73
     2
 44
1.068348169326782
1001
ACAD
1000
MTEXTBEGIN
1070
    73
1070
     2
1070
    44
1040
1.068348169326782
1070
    74
1070
     0
1000
MTEXTEND
  0
ENDBLK
  5
132
330
130
100
AcDbEntity
  8
0
100
AcDbBlockEnd
  0
BLOCK
  5
139
330
138
100
AcDbEntity
  8
0
100
AcDbBlockBegin
  2
ISO 2768 (zul. Abweichung)
 70
     2
 10
0.0
 20
0.0
 30
0.0
  3
ISO 2768 (zul. Abweichung)
  1

  0
LINE
  5
13B
330
138
100
AcDbEntity
  8
Skizziergeometrie(ISO)
100
AcDbLine
 10
-26.0
 20
0.0
 30
0.0
 11
0.0
 21
0.0
 31
0.0
  0
LINE
  5
13C
330
138
100
AcDbEntity
  8
Skizziergeometrie(ISO)
100
AcDbLine
 10
0.0
 20
0.0
 30
0.0
 11
0.0
 21
17.0
 31
0.0
  0
LINE
  5
13D
330
138
100
AcDbEntity
  8
Skizziergeometrie(ISO)
100
AcDbLine
 10
0.0
 20
17.0
 30
0.0
 11
-26.0
 21
17.0
 31
0.0
  0
LINE
  5
13E
330
138
100
AcDbEntity
  8
Skizziergeometrie(ISO)
100
AcDbLine
 10
-26.0
 20
17.0
 30
0.0
 11
-26.0
 21
0.0
 31
0.0
  0
MTEXT
  5
13F
330
138
100
AcDbEntity
  8
Symbole(ISO)
 62
     7
100
AcDbMText
 10
-7.994454197588593
 20
5.526470854171373
 30
0.0
 40
2.5
 41
17.99309312940538
 71
     6
 72
     1
  1
ISO 2768-
  7
TC 2_5 mm-ISOCPEUR
 73
     1
 44
1.0
1001
ACAD
1000
MTEXTBEGIN
1070
    73
1070
     1
1070
    44
1040
1.0
1070
    74
1070
     0
1000
MTEXTEND
  0
ATTDEF
  5
140
330
138
100
AcDbEntity
  8
Symbole(ISO)
 62
     7
100
AcDbText
 10
-7.924832568762529
 20
4.240604076340716
 30
0.0
 40
2.5
  1
 
 41
0.899999976158142
  7
TC 2_5 mm-ISOCPEUR
 11
-7.924832568762529
 21
5.490604076340716
 31
0.0
100
AcDbAttributeDefinition
  3
Grad
  2
Grad
 70
     0
 74
     2
  0
ENDBLK
  5
13A
330
138
100
AcDbEntity
  8
0
100
AcDbBlockEnd
  0
BLOCK
  5
142
330
141
100
AcDbEntity
  8
0
100
AcDbBlockBegin
  2
DIN ISO 1302 (Oberflächen)
 70
     0
 10
0.0
 20
0.0
 30
0.0
  3
DIN ISO 1302 (Oberflächen)
  1

  0
LINE
  5
144
330
141
100
AcDbEntity
  8
Skizziergeometrie(ISO)
100
AcDbLine
 10
-18.19999999999999
 20
0.0
 30
0.0
 11
0.0
 21
0.0
 31
0.0
  0
LINE
  5
145
330
141
100
AcDbEntity
  8
Skizziergeometrie(ISO)
100
AcDbLine
 10
0.0
 20
0.0
 30
0.0
 11
0.0
 21
17.0
 31
0.0
  0
LINE
  5
146
330
141
100
AcDbEntity
  8
Skizziergeometrie(ISO)
100
AcDbLine
 10
0.0
 20
17.0
 30
0.0
 11
-18.2
 21
17.0
 31
0.0
  0
LINE
  5
147
330
141
100
AcDbEntity
  8
Skizziergeometrie(ISO)
100
AcDbLine
 10
-18.2
 20
17.0
 30
0.0
 11
-18.19999999999999
 21
0.0
 31
0.0
  0
MTEXT
  5
148
330
141
100
AcDbEntity
  8
Symbole(ISO)
 62
     7
100
AcDbMText
 10
-9.137586403397849
 20
5.561325836084813
 30
0.0
 40
2.5
 41
18.21623868792871
 71
     5
 72
     1
  1
DIN ISO 1302
  7
TC 2_5 mm-ISOCPEUR
 73
     1
 44
1.0
1001
ACAD
1000
MTEXTBEGIN
1070
    73
1070
     1
1070
    44
1040
1.0
1070
    74
1070
     0
1000
MTEXTEND
  0
ENDBLK
  5
143
330
141
100
AcDbEntity
  8
0
100
AcDbBlockEnd
  0
BLOCK
  5
14A
330
149
100
AcDbEntity
  8
0
100
AcDbBlockBegin
  2
Ränder Ilme Rahmen A4 quer
 70
     0
 10
0.0
 20
0.0
 30
0.0
  3
Ränder Ilme Rahmen A4 quer
  1

  0
LINE
  5
14C
330
149
100
AcDbEntity
  8
Skizziergeometrie(ISO)
100
AcDbLine
 10
9.999999999999982
 20
9.999999999999952
 30
0.0
 11
10.00000000000001
 21
190.0
 31
0.0
  0
LINE
  5
14D
330
149
100
AcDbEntity
  8
Skizziergeometrie(ISO)
100
AcDbLine
 10
10.00000000000001
 20
190.0
 30
0.0
 11
287.0
 21
190.0
 31
0.0
  0
LINE
  5
14E
330
149
100
AcDbEntity
  8
Skizziergeometrie(ISO)
100
AcDbLine
 10
9.999999999999982
 20
9.999999999999952
 30
0.0
 11
287.0
 21
10.00000000000003
 31
0.0
  0
LINE
  5
14F
330
149
100
AcDbEntity
  8
Skizziergeometrie(ISO)
100
AcDbLine
 10
148.5
 20
210.0
 30
0.0
 11
148.5
 21
196.0
 31
0.0
  0
LINE
  5
150
330
149
100
AcDbEntity
  8
Skizziergeometrie(ISO)
100
AcDbLine
 10
287.0
 20
190.0
 30
0.0
 11
287.0
 21
10.00000000000003
 31
0.0
  0
MTEXT
  5
151
330
149
100
AcDbEntity
  8
Symbole(ISO)
 62
     7
100
AcDbMText
 10
148.5
 20
196.0
 30
0.0
 40
3.499999940395355
 41
0.0
 71
     2
 72
     1
  1
\fISOCPEUR|b0|i0;\H3.5000;    Diritti riservati     All rights reseved
  7
TC 2_5 mm
 73
     1
 44
1.0
1001
ACAD
1000
MTEXTBEGIN
1070
    73
1070
     1
1070
    44
1040
1.0
1070
    74
1070
     0
1000
MTEXTEND
  0
ENDBLK
  5
14B
330
149
100
AcDbEntity
  8
0
100
AcDbBlockEnd
  0
BLOCK
  5
155
330
154
100
AcDbEntity
  8
0
100
AcDbBlockBegin
  2
Schriftfelder Ilme
 70
     2
 10
0.0
 20
0.0
 30
0.0
  3
Schriftfelder Ilme
  1

  0
ARC
  5
157
102
{ACAD_REACTORS
330
15B
102
}
330
154
100
AcDbEntity
  8
0
100
AcDbCircle
 10
184.655189950303
 20
19.15390948356282
 30
10.0
 40
0.3333333333333996
100
AcDbArc
 50
0.0
 51
180.0
  0
LINE
  5
158
102
{ACAD_REACTORS
330
15B
102
}
330
154
100
AcDbEntity
  8
0
100
AcDbLine
 10
184.3218566169696
 20
15.84737070168959
 30
10.0
 11
184.3218566169696
 21
19.15390948356282
 31
10.0
  0
ARC
  5
159
102
{ACAD_REACTORS
330
15B
102
}
330
154
100
AcDbEntity
  8
0
100
AcDbCircle
 10
184.655189950303
 20
15.84737070168959
 30
10.0
 40
0.3333333333333997
100
AcDbArc
 50
180.0
 51
0.0
  0
LINE
  5
15A
102
{ACAD_REACTORS
330
15B
102
}
330
154
100
AcDbEntity
  8
0
100
AcDbLine
 10
184.9885232836365
 20
19.15390948356282
 30
10.0
 11
184.9885232836365
 21
15.84737070168959
 31
10.0
  0
HATCH
  5
15B
330
154
100
AcDbEntity
  8
Schraffur
 62
     7
100
AcDbHatch
 10
0.0
 20
0.0
 30
0.0
210
0.0
220
0.0
230
1.0
  2
SOLID
 70
     1
 71
     1
 91
        1
 92
        1
 93
        4
 72
     2
 10
184.655189950303
 20
19.15390948356282
 40
0.3333333333333996
 50
0.0
 51
180.0
 73
     1
 72
     1
 10
184.3218566169696
 20
19.15390948356282
 11
184.3218566169696
 21
15.84737070168959
 72
     2
 10
184.655189950303
 20
15.84737070168959
 40
0.3333333333333997
 50
180.0
 51
360.0
 73
     1
 72
     1
 10
184.9885232836365
 20
15.84737070168959
 11
184.9885232836365
 21
19.15390948356282
 97
        4
330
157
330
158
330
159
330
15A
 75
     0
 76
     1
 98
        1
 10
0.0
 20
0.0
  0
LINE
  5
15C
102
{ACAD_REACTORS
330
163
102
}
330
154
100
AcDbEntity
  8
0
100
AcDbLine
 10
188.4894939320861
 20
14.02010125116808
 30
0.0
 11
186.3218576257727
 21
15.27066065865696
 31
0.0
  0
ARC
  5
15D
102
{ACAD_REACTORS
330
163
102
}
330
154
100
AcDbEntity
  8
0
100
AcDbCircle
 10
188.3229197809228
 20
13.73137272248517
 30
0.0
 40
0.333333333333396
100
AcDbArc
 50
240.0183606311473
 51
60.01836063114733
  0
LINE
  5
15E
102
{ACAD_REACTORS
330
163
102
}
330
154
100
AcDbEntity
  8
0
100
AcDbLine
 10
185.9887104250881
 20
14.69320296572853
 30
0.0
 11
188.1563456297596
 21
13.44264419380229
 31
0.0
  0
ARC
  5
15F
102
{ACAD_REACTORS
330
163
102
}
330
154
100
AcDbEntity
  8
0
100
AcDbCircle
 10
186.3218598278342
 20
15.27066193048824
 30
0.0
 40
0.6666688687282916
100
AcDbArc
 50
180.0
 51
240.0183606311454
  0
LINE
  5
160
102
{ACAD_REACTORS
330
163
102
}
330
154
100
AcDbEntity
  8
0
100
AcDbLine
 10
185.6551909591059
 20
19.94397836659928
 30
0.0
 11
185.6551909591059
 21
15.27066193048824
 31
0.0
  0
ARC
  5
161
102
{ACAD_REACTORS
330
163
102
}
330
154
100
AcDbEntity
  8
0
100
AcDbCircle
 10
185.9885242924393
 20
19.94397836659928
 30
0.0
 40
0.333333333333396
100
AcDbArc
 50
0.0
 51
180.0
  0
LINE
  5
162
102
{ACAD_REACTORS
330
163
102
}
330
154
100
AcDbEntity
  8
0
100
AcDbLine
 10
186.3218576257727
 20
15.27066065865696
 30
0.0
 11
186.3218576257727
 21
19.94397836659928
 31
0.0
  0
HATCH
  5
163
330
154
100
AcDbEntity
  8
Schraffur
 62
     7
100
AcDbHatch
 10
0.0
 20
0.0
 30
0.0
210
0.0
220
0.0
230
1.0
  2
SOLID
 70
     1
 71
     1
 91
        1
 92
        1
 93
        7
 72
     1
 10
188.4894939320861
 20
14.02010125116808
 11
186.3218576257727
 21
15.27066065865696
 72
     1
 10
186.3218576257727
 20
15.27066065865696
 11
186.3218576257727
 21
19.94397836659928
 72
     2
 10
185.9885242924393
 20
19.94397836659928
 40
0.333333333333396
 50
0.0
 51
180.0
 73
     1
 72
     1
 10
185.6551909591059
 20
19.94397836659928
 11
185.6551909591059
 21
15.27066193048824
 72
     2
 10
186.3218598278342
 20
15.27066193048824
 40
0.6666688687282916
 50
180.0
 51
240.0183606311454
 73
     1
 72
     1
 10
185.9887104250881
 20
14.69320296572853
 11
188.1563456297596
 21
13.44264419380229
 72
     2
 10
188.3229197809228
 20
13.73137272248517
 40
0.333333333333396
 50
240.0183606311473
 51
420.0183606311473
 73
     1
 97
        7
330
15C
330
162
330
161
330
160
330
15F
330
15E
330
15D
 75
     0
 76
     1
 98
        1
 10
0.0
 20
0.0
  0
LINE
  5
164
102
{ACAD_REACTORS
330
171
102
}
330
154
100
AcDbEntity
  8
0
100
AcDbLine
 10
188.655189950303
 20
18.85482345606895
 30
0.0
 11
187.4829623801859
 21
20.88518116554469
 31
0.0
  0
LINE
  5
165
102
{ACAD_REACTORS
330
171
102
}
330
154
100
AcDbEntity
  8
0
100
AcDbLine
 10
189.82741752042
 20
20.88518116554469
 30
0.0
 11
188.655189950303
 21
18.85482345606895
 31
0.0
  0
ARC
  5
166
102
{ACAD_REACTORS
330
171
102
}
330
154
100
AcDbEntity
  8
0
100
AcDbCircle
 10
190.0568849915682
 20
20.75269805930704
 30
0.0
 40
0.2649662124752865
100
AcDbArc
 50
0.0
 51
149.9999999999939
  0
LINE
  5
167
102
{ACAD_REACTORS
330
171
102
}
330
154
100
AcDbEntity
  8
0
100
AcDbLine
 10
190.3218512040435
 20
14.28806850858179
 30
0.0
 11
190.3218512040435
 21
20.75269805930705
 31
0.0
  0
ARC
  5
168
102
{ACAD_REACTORS
330
171
102
}
330
154
100
AcDbEntity
  8
0
100
AcDbCircle
 10
189.98851787071
 20
14.28806850858179
 30
0.0
 40
0.3333333333334023
100
AcDbArc
 50
180.0
 51
0.0
  0
LINE
  5
169
102
{ACAD_REACTORS
330
171
102
}
330
154
100
AcDbEntity
  8
0
100
AcDbLine
 10
189.6551845373767
 20
19.25353601487275
 30
0.0
 11
189.6551845373766
 21
14.28806850858179
 31
0.0
  0
LINE
  5
16A
102
{ACAD_REACTORS
330
171
102
}
330
154
100
AcDbEntity
  8
0
100
AcDbLine
 10
188.7995275176003
 20
17.77149458276708
 30
0.0
 11
189.6551845373767
 21
19.25353601487275
 31
0.0
  0
ARC
  5
16B
102
{ACAD_REACTORS
330
171
102
}
330
154
100
AcDbEntity
  8
0
100
AcDbCircle
 10
188.655189950303
 20
17.85482791610036
 30
0.0
 40
0.1666666666665381
100
AcDbArc
 50
209.9999999999992
 51
330.0000000000008
  0
LINE
  5
16C
102
{ACAD_REACTORS
330
171
102
}
330
154
100
AcDbEntity
  8
0
100
AcDbLine
 10
187.6551953632293
 20
19.25353601487277
 30
0.0
 11
188.5108523830057
 21
17.77149458276708
 31
0.0
  0
LINE
  5
16D
102
{ACAD_REACTORS
330
171
102
}
330
154
100
AcDbEntity
  8
0
100
AcDbLine
 10
187.6551953632293
 20
15.84737070168959
 30
0.0
 11
187.6551953632293
 21
19.25353601487277
 31
0.0
  0
ARC
  5
16E
102
{ACAD_REACTORS
330
171
102
}
330
154
100
AcDbEntity
  8
0
100
AcDbCircle
 10
187.3218620298959
 20
15.84737070168959
 30
0.0
 40
0.333333333333396
100
AcDbArc
 50
180.0
 51
0.0
  0
LINE
  5
16F
102
{ACAD_REACTORS
330
171
102
}
330
154
100
AcDbEntity
  8
0
100
AcDbLine
 10
186.9885286965624
 20
20.75269805930705
 30
0.0
 11
186.9885286965624
 21
15.84737070168959
 31
0.0
  0
ARC
  5
170
102
{ACAD_REACTORS
330
171
102
}
330
154
100
AcDbEntity
  8
0
100
AcDbCircle
 10
187.2534949090378
 20
20.75269805930705
 30
0.0
 40
0.2649662124752854
100
AcDbArc
 50
29.9999999999981
 51
180.0
  0
HATCH
  5
171
330
154
100
AcDbEntity
  8
Schraffur
 62
     7
100
AcDbHatch
 10
0.0
 20
0.0
 30
0.0
210
0.0
220
0.0
230
1.0
  2
SOLID
 70
     1
 71
     1
 91
        1
 92
        1
 93
       13
 72
     1
 10
188.655189950303
 20
18.85482345606895
 11
187.4829623801859
 21
20.88518116554469
 72
     2
 10
187.2534949090378
 20
20.75269805930705
 40
0.2649662124752854
 50
29.9999999999981
 51
180.0
 73
     1
 72
     1
 10
186.9885286965624
 20
20.75269805930705
 11
186.9885286965624
 21
15.84737070168959
 72
     2
 10
187.3218620298959
 20
15.84737070168959
 40
0.333333333333396
 50
180.0
 51
360.0
 73
     1
 72
     1
 10
187.6551953632293
 20
15.84737070168959
 11
187.6551953632293
 21
19.25353601487277
 72
     1
 10
187.6551953632293
 20
19.25353601487277
 11
188.5108523830057
 21
17.77149458276708
 72
     2
 10
188.655189950303
 20
17.85482791610036
 40
0.1666666666665381
 50
209.9999999999992
 51
330.0000000000008
 73
     1
 72
     1
 10
188.7995275176003
 20
17.77149458276708
 11
189.6551845373767
 21
19.25353601487275
 72
     1
 10
189.6551845373767
 20
19.25353601487275
 11
189.6551845373766
 21
14.28806850858179
 72
     2
 10
189.98851787071
 20
14.28806850858179
 40
0.3333333333334023
 50
180.0
 51
360.0
 73
     1
 72
     1
 10
190.3218512040435
 20
14.28806850858179
 11
190.3218512040435
 21
20.75269805930705
 72
     2
 10
190.0568849915682
 20
20.75269805930704
 40
0.2649662124752865
 50
0.0
 51
149.9999999999939
 73
     1
 72
     1
 10
189.82741752042
 20
20.88518116554469
 11
188.655189950303
 21
18.85482345606894
 97
       13
330
164
330
170
330
16F
330
16E
330
16D
330
16C
330
16B
330
16A
330
169
330
168
330
167
330
166
330
165
 75
     0
 76
     1
 98
        1
 10
0.0
 20
0.0
  0
ARC
  5
172
102
{ACAD_REACTORS
330
180
102
}
330
154
100
AcDbEntity
  8
0
100
AcDbCircle
 10
192.6913083387628
 20
15.84737070168959
 30
10.0
 40
0.3333333333333919
100
AcDbArc
 50
299.9816393688529
 51
119.9816393688526
  0
LINE
  5
173
102
{ACAD_REACTORS
330
180
102
}
330
154
100
AcDbEntity
  8
0
100
AcDbLine
 10
191.6551889415001
 20
15.6344385114688
 30
10.0
 11
192.5247341875995
 21
16.13609923037247
 31
10.0
  0
LINE
  5
174
102
{ACAD_REACTORS
330
180
102
}
330
154
100
AcDbEntity
  8
0
100
AcDbLine
 10
191.6551889415001
 20
17.1673067592928
 30
10.0
 11
191.6551889415001
 21
15.6344385114688
 31
10.0
  0
LINE
  5
175
102
{ACAD_REACTORS
330
180
102
}
330
154
100
AcDbEntity
  8
0
100
AcDbLine
 10
192.6913083387628
 20
17.1673067592928
 30
10.0
 11
191.6551889415001
 21
17.1673067592928
 31
10.0
  0
ARC
  5
176
102
{ACAD_REACTORS
330
180
102
}
330
154
100
AcDbEntity
  8
0
100
AcDbCircle
 10
192.6913083387628
 20
17.5006400926262
 30
10.0
 40
0.333333333333396
100
AcDbArc
 50
270.0
 51
90.0
  0
LINE
  5
177
102
{ACAD_REACTORS
330
180
102
}
330
154
100
AcDbEntity
  8
0
100
AcDbLine
 10
191.6551889415001
 20
17.8339734259596
 30
10.0
 11
192.6913083387628
 21
17.8339734259596
 31
10.0
  0
LINE
  5
178
102
{ACAD_REACTORS
330
180
102
}
330
154
100
AcDbEntity
  8
0
100
AcDbLine
 10
191.6551889415001
 20
19.36684167378358
 30
10.0
 11
191.6551889415001
 21
17.8339734259596
 31
10.0
  0
LINE
  5
179
102
{ACAD_REACTORS
330
180
102
}
330
154
100
AcDbEntity
  8
0
100
AcDbLine
 10
192.5247341875995
 20
18.86518095487989
 30
10.0
 11
191.6551889415001
 21
19.36684167378358
 31
10.0
  0
ARC
  5
17A
102
{ACAD_REACTORS
330
180
102
}
330
154
100
AcDbEntity
  8
0
100
AcDbCircle
 10
192.6913083387628
 20
19.15390948356282
 30
10.0
 40
0.3333333333333963
100
AcDbArc
 50
240.0183606311407
 51
60.01835942372524
  0
LINE
  5
17B
102
{ACAD_REACTORS
330
180
102
}
330
154
100
AcDbEntity
  8
0
100
AcDbLine
 10
191.4884297593299
 20
20.23270689528218
 30
10.0
 11
192.857882489926
 21
19.44263801224573
 31
10.0
  0
ARC
  5
17C
102
{ACAD_REACTORS
330
180
102
}
330
154
100
AcDbEntity
  8
0
100
AcDbCircle
 10
191.3218556081666
 20
19.94397836659928
 30
10.0
 40
0.333333333333396
100
AcDbArc
 50
60.01836063114071
 51
180.0
  0
LINE
  5
17D
102
{ACAD_REACTORS
330
180
102
}
330
154
100
AcDbEntity
  8
0
100
AcDbLine
 10
190.9885222748332
 20
15.05730181865312
 30
10.0
 11
190.9885222748332
 21
19.94397836659928
 31
10.0
  0
ARC
  5
17E
102
{ACAD_REACTORS
330
180
102
}
330
154
100
AcDbEntity
  8
0
100
AcDbCircle
 10
191.3218556081666
 20
15.05730181865312
 30
10.0
 40
0.333333333333396
100
AcDbArc
 50
180.0
 51
299.9816393688593
  0
LINE
  5
17F
102
{ACAD_REACTORS
330
180
102
}
330
154
100
AcDbEntity
  8
0
100
AcDbLine
 10
192.857882489926
 20
15.55864217300668
 30
10.0
 11
191.4884297593299
 21
14.7685732899702
 31
10.0
  0
HATCH
  5
180
330
154
100
AcDbEntity
  8
Schraffur
 62
     7
100
AcDbHatch
 10
0.0
 20
0.0
 30
0.0
210
0.0
220
0.0
230
1.0
  2
SOLID
 70
     1
 71
     1
 91
        1
 92
        1
 93
       14
 72
     2
 10
192.6913083387628
 20
15.84737070168959
 40
0.3333333333333919
 50
299.9816393688529
 51
479.9816393688526
 73
     1
 72
     1
 10
192.5247341875995
 20
16.13609923037247
 11
191.6551889415001
 21
15.63443851146881
 72
     1
 10
191.6551889415001
 20
15.6344385114688
 11
191.6551889415001
 21
17.1673067592928
 72
     1
 10
191.6551889415001
 20
17.1673067592928
 11
192.6913083387628
 21
17.1673067592928
 72
     2
 10
192.6913083387628
 20
17.5006400926262
 40
0.333333333333396
 50
270.0
 51
450.0
 73
     1
 72
     1
 10
192.6913083387628
 20
17.8339734259596
 11
191.6551889415001
 21
17.8339734259596
 72
     1
 10
191.6551889415001
 20
17.8339734259596
 11
191.6551889415001
 21
19.36684167378358
 72
     1
 10
191.6551889415001
 20
19.36684167378358
 11
192.5247341875995
 21
18.86518095487989
 72
     2
 10
192.6913083387628
 20
19.15390948356282
 40
0.3333333333333963
 50
240.0183606311407
 51
420.0183594237252
 73
     1
 72
     1
 10
192.857882489926
 20
19.44263801224573
 11
191.4884297593299
 21
20.23270689528218
 72
     2
 10
191.3218556081666
 20
19.94397836659928
 40
0.333333333333396
 50
60.01836063114071
 51
180.0
 73
     1
 72
     1
 10
190.9885222748332
 20
19.94397836659928
 11
190.9885222748332
 21
15.05730181865312
 72
     2
 10
191.3218556081666
 20
15.05730181865312
 40
0.333333333333396
 50
180.0
 51
299.9816393688593
 73
     1
 72
     1
 10
191.4884297593299
 20
14.7685732899702
 11
192.857882489926
 21
15.55864217300668
 97
       14
330
172
330
173
330
174
330
175
330
176
330
177
330
178
330
179
330
17A
330
17B
330
17C
330
17D
330
17E
330
17F
 75
     0
 76
     1
 98
        1
 10
0.0
 20
0.0
  0
LINE
  5
181
330
154
100
AcDbEntity
  8
Skizziergeometrie(ISO)
100
AcDbLine
 10
19.98018995030303
 20
45.0006400926262
 30
0.0
 11
199.980189950303
 21
45.0006400926262
 31
0.0
  0
LINE
  5
182
330
154
100
AcDbEntity
  8
Skizziergeometrie(ISO)
100
AcDbLine
 10
19.98018995030303
 20
40.0006400926262
 30
0.0
 11
199.980189950303
 21
40.0006400926262
 31
0.0
  0
LINE
  5
183
330
154
100
AcDbEntity
  8
Skizziergeometrie(ISO)
100
AcDbLine
 10
19.98018995030303
 20
35.00064009262621
 30
0.0
 11
199.980189950303
 21
35.00064009262621
 31
0.0
  0
LINE
  5
184
330
154
100
AcDbEntity
  8
Skizziergeometrie(ISO)
100
AcDbLine
 10
19.98018995030303
 20
30.00064009262621
 30
0.0
 11
199.980189950303
 21
30.00064009262621
 31
0.0
  0
LINE
  5
185
330
154
100
AcDbEntity
  8
Skizziergeometrie(ISO)
100
AcDbLine
 10
19.98018995030303
 20
25.00064009262621
 30
0.0
 11
199.980189950303
 21
25.00064009262621
 31
0.0
  0
LINE
  5
186
330
154
100
AcDbEntity
  8
Skizziergeometrie(ISO)
100
AcDbLine
 10
19.98018995030303
 20
17.5006400926262
 30
0.0
 11
49.98018995030306
 21
17.5006400926262
 31
0.0
  0
LINE
  5
187
330
154
100
AcDbEntity
  8
Skizziergeometrie(ISO)
100
AcDbLine
 10
26.98018995030303
 20
45.0006400926262
 30
0.0
 11
26.98018995030303
 21
25.00064009262621
 31
0.0
  0
LINE
  5
188
330
154
100
AcDbEntity
  8
Skizziergeometrie(ISO)
100
AcDbLine
 10
44.98018995030303
 20
45.0006400926262
 30
0.0
 11
44.98018995030303
 21
25.00064009262621
 31
0.0
  0
LINE
  5
189
330
154
100
AcDbEntity
  8
Skizziergeometrie(ISO)
100
AcDbLine
 10
49.98018995030306
 20
10.0006400926262
 30
0.0
 11
49.98018995030306
 21
25.00064009262621
 31
0.0
  0
LINE
  5
18A
330
154
100
AcDbEntity
  8
Skizziergeometrie(ISO)
100
AcDbLine
 10
159.980189950303
 20
25.00064009262621
 30
0.0
 11
159.980189950303
 21
10.0006400926262
 31
0.0
  0
LINE
  5
18B
330
154
100
AcDbEntity
  8
Skizziergeometrie(ISO)
100
AcDbLine
 10
177.3301899503031
 20
25.0006400926262
 30
0.0
 11
177.3301899503031
 21
10.0006400926262
 31
0.0
  0
LINE
  5
18C
330
154
100
AcDbEntity
  8
Skizziergeometrie(ISO)
100
AcDbLine
 10
190.9885222748332
 20
15.05730181865312
 30
0.0
 11
190.9885222748332
 21
19.94397836659928
 31
0.0
  0
LINE
  5
18D
330
154
100
AcDbEntity
  8
Skizziergeometrie(ISO)
100
AcDbLine
 10
192.857882489926
 20
15.55864217300668
 30
0.0
 11
191.4884297593299
 21
14.7685732899702
 31
0.0
  0
LINE
  5
18E
330
154
100
AcDbEntity
  8
Skizziergeometrie(ISO)
100
AcDbLine
 10
191.6551889415001
 20
15.6344385114688
 30
0.0
 11
192.5247341875995
 21
16.13609923037247
 31
0.0
  0
LINE
  5
18F
330
154
100
AcDbEntity
  8
Skizziergeometrie(ISO)
100
AcDbLine
 10
191.6551889415001
 20
17.1673067592928
 30
0.0
 11
191.6551889415001
 21
15.6344385114688
 31
0.0
  0
LINE
  5
190
330
154
100
AcDbEntity
  8
Skizziergeometrie(ISO)
100
AcDbLine
 10
192.6913083387628
 20
17.1673067592928
 30
0.0
 11
191.6551889415001
 21
17.1673067592928
 31
0.0
  0
LINE
  5
191
330
154
100
AcDbEntity
  8
Skizziergeometrie(ISO)
100
AcDbLine
 10
191.6551889415001
 20
17.8339734259596
 30
0.0
 11
192.6913083387628
 21
17.8339734259596
 31
0.0
  0
LINE
  5
192
330
154
100
AcDbEntity
  8
Skizziergeometrie(ISO)
100
AcDbLine
 10
191.6551889415001
 20
19.36684167378358
 30
0.0
 11
191.6551889415001
 21
17.8339734259596
 31
0.0
  0
LINE
  5
193
330
154
100
AcDbEntity
  8
Skizziergeometrie(ISO)
100
AcDbLine
 10
192.5247341875995
 20
18.86518095487989
 30
0.0
 11
191.6551889415001
 21
19.36684167378358
 31
0.0
  0
LINE
  5
194
330
154
100
AcDbEntity
  8
Skizziergeometrie(ISO)
100
AcDbLine
 10
191.4884297593299
 20
20.23270689528218
 30
0.0
 11
192.857882489926
 21
19.44263801224573
 31
0.0
  0
LINE
  5
195
330
154
100
AcDbEntity
  8
Skizziergeometrie(ISO)
100
AcDbLine
 10
184.3218566169696
 20
15.84737070168959
 30
0.0
 11
184.3218566169696
 21
19.15390948356282
 31
0.0
  0
LINE
  5
196
330
154
100
AcDbEntity
  8
Skizziergeometrie(ISO)
100
AcDbLine
 10
184.9885232836365
 20
19.15390948356282
 30
0.0
 11
184.9885232836365
 21
15.84737070168959
 31
0.0
  0
LINE
  5
197
330
154
100
AcDbEntity
  8
Skizziergeometrie(ISO)
100
AcDbLine
 10
188.1563456297596
 20
13.44264419380229
 30
0.0
 11
185.9887104250881
 21
14.69320296572853
 31
0.0
  0
LINE
  5
198
330
154
100
AcDbEntity
  8
Skizziergeometrie(ISO)
100
AcDbLine
 10
186.3218576257727
 20
15.27066065865696
 30
0.0
 11
188.4894939320861
 21
14.02010125116808
 31
0.0
  0
LINE
  5
199
330
154
100
AcDbEntity
  8
Skizziergeometrie(ISO)
100
AcDbLine
 10
186.3218576257727
 20
19.94397836659928
 30
0.0
 11
186.3218576257727
 21
15.27066065865696
 31
0.0
  0
LINE
  5
19A
330
154
100
AcDbEntity
  8
Skizziergeometrie(ISO)
100
AcDbLine
 10
185.6551909591059
 20
15.27066193048824
 30
0.0
 11
185.6551909591059
 21
19.94397836659928
 31
0.0
  0
LINE
  5
19B
330
154
100
AcDbEntity
  8
Skizziergeometrie(ISO)
100
AcDbLine
 10
189.82741752042
 20
20.88518116554469
 30
0.0
 11
188.655189950303
 21
18.85482345606895
 31
0.0
  0
LINE
  5
19C
330
154
100
AcDbEntity
  8
Skizziergeometrie(ISO)
100
AcDbLine
 10
190.3218512040435
 20
14.28806850858179
 30
0.0
 11
190.3218512040435
 21
20.75269805930705
 31
0.0
  0
LINE
  5
19D
330
154
100
AcDbEntity
  8
Skizziergeometrie(ISO)
100
AcDbLine
 10
187.4829623801859
 20
20.88518116554469
 30
0.0
 11
188.655189950303
 21
18.85482345606895
 31
0.0
  0
LINE
  5
19E
330
154
100
AcDbEntity
  8
Skizziergeometrie(ISO)
100
AcDbLine
 10
186.9885286965624
 20
15.84737070168959
 30
0.0
 11
186.9885286965624
 21
20.75269805930705
 31
0.0
  0
LINE
  5
19F
330
154
100
AcDbEntity
  8
Skizziergeometrie(ISO)
100
AcDbLine
 10
188.655189950303
 20
12.50064009262539
 30
0.0
 11
180.2387546751623
 21
17.35627582828491
 31
0.0
  0
LINE
  5
1A0
330
154
100
AcDbEntity
  8
Skizziergeometrie(ISO)
100
AcDbLine
 10
197.0716252254436
 20
17.35627582828489
 30
0.0
 11
188.655189950303
 21
12.50064009262539
 31
0.0
  0
LINE
  5
1A1
330
154
100
AcDbEntity
  8
Skizziergeometrie(ISO)
100
AcDbLine
 10
188.655189950303
 20
22.50064009262702
 30
0.0
 11
197.0716252254436
 21
17.6450043569675
 31
0.0
  0
LINE
  5
1A2
330
154
100
AcDbEntity
  8
Skizziergeometrie(ISO)
100
AcDbLine
 10
180.2387546751623
 20
17.6450043569675
 30
0.0
 11
188.655189950303
 21
22.50064009262702
 31
0.0
  0
LINE
  5
1A3
330
154
100
AcDbEntity
  8
Skizziergeometrie(ISO)
100
AcDbLine
 10
187.6551953632293
 20
19.25353601487277
 30
0.0
 11
187.6551953632293
 21
15.84737070168959
 31
0.0
  0
LINE
  5
1A4
330
154
100
AcDbEntity
  8
Skizziergeometrie(ISO)
100
AcDbLine
 10
188.5108523830057
 20
17.77149458276708
 30
0.0
 11
187.6551953632293
 21
19.25353601487277
 31
0.0
  0
LINE
  5
1A5
330
154
100
AcDbEntity
  8
Skizziergeometrie(ISO)
100
AcDbLine
 10
189.6551845373767
 20
19.25353601487275
 30
0.0
 11
188.7995275176003
 21
17.77149458276708
 31
0.0
  0
LINE
  5
1A6
330
154
100
AcDbEntity
  8
Skizziergeometrie(ISO)
100
AcDbLine
 10
189.6551845373766
 20
14.28806850858179
 30
0.0
 11
189.6551845373767
 21
19.25353601487275
 31
0.0
  0
ARC
  5
1A7
330
154
100
AcDbEntity
  8
Skizziergeometrie(ISO)
100
AcDbCircle
 10
192.6913083387628
 20
15.84737070168959
 30
0.0
 40
0.3333333333333919
100
AcDbArc
 50
299.9816393688527
 51
119.98163936886
  0
ARC
  5
1A8
330
154
100
AcDbEntity
  8
Skizziergeometrie(ISO)
100
AcDbCircle
 10
192.6913083387628
 20
17.5006400926262
 30
0.0
 40
0.333333333333396
100
AcDbArc
 50
270.0
 51
90.0
  0
ARC
  5
1A9
330
154
100
AcDbEntity
  8
Skizziergeometrie(ISO)
100
AcDbCircle
 10
192.6913083387628
 20
19.15390948356282
 30
0.0
 40
0.3333333333333963
100
AcDbArc
 50
240.0183606311413
 51
60.01836063114108
  0
ARC
  5
1AA
330
154
100
AcDbEntity
  8
Skizziergeometrie(ISO)
100
AcDbCircle
 10
184.655189950303
 20
15.84737070168959
 30
0.0
 40
0.3333333333333997
100
AcDbArc
 50
180.0
 51
0.0
  0
ARC
  5
1AB
330
154
100
AcDbEntity
  8
Skizziergeometrie(ISO)
100
AcDbCircle
 10
184.655189950303
 20
19.15390948356282
 30
0.0
 40
0.3333333333333996
100
AcDbArc
 50
0.0
 51
180.0
  0
ARC
  5
1AC
330
154
100
AcDbEntity
  8
Skizziergeometrie(ISO)
100
AcDbCircle
 10
188.3229197809228
 20
13.73137272248517
 30
0.0
 40
0.333333333333396
100
AcDbArc
 50
240.0183606311468
 51
60.01836063114108
  0
ARC
  5
1AD
330
154
100
AcDbEntity
  8
Skizziergeometrie(ISO)
100
AcDbCircle
 10
185.9885242924393
 20
19.94397836659928
 30
0.0
 40
0.333333333333396
100
AcDbArc
 50
0.0
 51
180.0
  0
ARC
  5
1AE
330
154
100
AcDbEntity
  8
Skizziergeometrie(ISO)
100
AcDbCircle
 10
190.0568849915682
 20
20.75269805930704
 30
0.0
 40
0.2649662124752865
100
AcDbArc
 50
0.0
 51
149.9999999999956
  0
ARC
  5
1AF
330
154
100
AcDbEntity
  8
Skizziergeometrie(ISO)
100
AcDbCircle
 10
189.98851787071
 20
14.28806850858179
 30
0.0
 40
0.3333333333334023
100
AcDbArc
 50
180.0
 51
0.0
  0
ARC
  5
1B0
330
154
100
AcDbEntity
  8
Skizziergeometrie(ISO)
100
AcDbCircle
 10
187.3218620298959
 20
15.84737070168959
 30
0.0
 40
0.333333333333396
100
AcDbArc
 50
180.0
 51
0.0
  0
ARC
  5
1B1
330
154
100
AcDbEntity
  8
Skizziergeometrie(ISO)
100
AcDbCircle
 10
187.2534949090378
 20
20.75269805930705
 30
0.0
 40
0.2649662124752854
100
AcDbArc
 50
29.99999999999976
 51
180.0
  0
ARC
  5
1B2
330
154
100
AcDbEntity
  8
Skizziergeometrie(ISO)
100
AcDbCircle
 10
191.3218556081666
 20
15.05730181865312
 30
0.0
 40
0.333333333333396
100
AcDbArc
 50
180.0
 51
299.9816393688587
  0
ARC
  5
1B3
330
154
100
AcDbEntity
  8
Skizziergeometrie(ISO)
100
AcDbCircle
 10
191.3218556081666
 20
19.94397836659928
 30
0.0
 40
0.333333333333396
100
AcDbArc
 50
60.01836063114071
 51
180.0
  0
ARC
  5
1B4
330
154
100
AcDbEntity
  8
Skizziergeometrie(ISO)
100
AcDbCircle
 10
196.9883381498621
 20
17.5006400926262
 30
0.0
 40
0.1666666666665381
100
AcDbArc
 50
299.9816393688627
 51
60.01836063115012
  0
ARC
  5
1B5
330
154
100
AcDbEntity
  8
Skizziergeometrie(ISO)
100
AcDbCircle
 10
180.3220417507439
 20
17.5006400926262
 30
0.0
 40
0.1666666666665381
100
AcDbArc
 50
119.9816393688498
 51
240.0183606311497
  0
ARC
  5
1B6
330
154
100
AcDbEntity
  8
Skizziergeometrie(ISO)
100
AcDbCircle
 10
186.3218598278342
 20
15.27066193048824
 30
0.0
 40
0.6666688687282916
100
AcDbArc
 50
180.0
 51
240.0183606311453
  0
ARC
  5
1B7
330
154
100
AcDbEntity
  8
Skizziergeometrie(ISO)
100
AcDbCircle
 10
188.655189950303
 20
17.85482791610036
 30
0.0
 40
0.1666666666665381
100
AcDbArc
 50
209.9999999999999
 51
330.0000000000001
  0
LINE
  5
1B8
330
154
100
AcDbEntity
  8
Skizzierlinie(TC_020513_DIN)
100
AcDbLine
 10
20.98018995030303
 20
25.00064009262621
 30
0.0
 11
20.98018995030303
 21
17.5006400926262
 31
0.0
  0
LINE
  5
1B9
330
154
100
AcDbEntity
  8
Skizzierlinie(TC_020513_DIN)
100
AcDbLine
 10
20.98018995030303
 20
17.5006400926262
 30
0.0
 11
20.980189950303
 21
10.0006400926262
 31
0.0
  0
LINE
  5
1BA
330
154
100
AcDbEntity
  8
Skizzierlinie(TC_020513_DIN)
100
AcDbLine
 10
49.98018995030306
 20
25.00064009262621
 30
0.0
 11
29.98018995030301
 21
17.5006400926262
 31
0.0
  0
LINE
  5
1BB
330
154
100
AcDbEntity
  8
Skizzierlinie(TC_020513_DIN)
100
AcDbLine
 10
177.3301899503031
 20
25.0006400926262
 30
0.0
 11
159.980189950303
 21
20.0006400926262
 31
0.0
  0
LINE
  5
1BC
330
154
100
AcDbEntity
  8
Skizzierlinie(TC_020513_DIN)
100
AcDbLine
 10
159.980189950303
 20
20.0006400926262
 30
0.0
 11
177.3301899503031
 21
10.0006400926262
 31
0.0
  0
LINE
  5
1BD
330
154
100
AcDbEntity
  8
Skizziergeometrie(ISO)
100
AcDbLine
 10
19.98018995030303
 20
45.0006400926262
 30
0.0
 11
19.98018995030303
 21
10.0006400926262
 31
0.0
  0
LINE
  5
1BE
330
154
100
AcDbEntity
  8
Skizzierlinie(TC_020513_DIN)
100
AcDbLine
 10
50.98018995030301
 20
25.00064009262621
 30
0.0
 11
50.98018995030301
 21
17.5006400926262
 31
0.0
  0
LINE
  5
1BF
330
154
100
AcDbEntity
  8
Skizzierlinie(TC_020513_DIN)
100
AcDbLine
 10
50.98018995030301
 20
17.5006400926262
 30
0.0
 11
50.98018995030301
 21
10.0006400926262
 31
0.0
  0
MTEXT
  5
1C0
330
154
100
AcDbEntity
  8
Symbole(ISO)
 62
     7
100
AcDbMText
 10
20.98018995030303
 20
21.2506400926262
 30
0.0
 40
2.5
 41
8.997516465920178
 71
     4
 72
     1
  1
 Date
  7
TC 2_5 mm
 73
     1
 44
1.0
1001
ACAD
1000
MTEXTBEGIN
1070
    73
1070
     1
1070
    44
1040
1.0
1070
    74
1070
     0
1000
MTEXTEND
  0
MTEXT
  5
1C1
330
154
100
AcDbEntity
  8
Symbole(ISO)
 62
     7
100
AcDbMText
 10
20.980189950303
 20
13.7506400926262
 30
0.0
 40
2.5
 41
8.970966064125889
 71
     4
 72
     1
  1
 Sign.
  7
TC 2_5 mm
 73
     1
 44
1.0
1001
ACAD
1000
MTEXTBEGIN
1070
    73
1070
     1
1070
    44
1040
1.0
1070
    74
1070
     0
1000
MTEXTEND
  0
MTEXT
  5
1C2
330
154
100
AcDbEntity
  8
Symbole(ISO)
 62
     7
100
AcDbMText
 10
168.655189950303
 20
22.5006400926262
 30
0.0
 40
2.5
 41
17.34061856478945
 71
     5
 72
     1
  1
Scale
  7
TC 2_5 mm
 73
     1
 44
1.0
1001
ACAD
1000
MTEXTBEGIN
1070
    73
1070
     1
1070
    44
1040
1.0
1070
    74
1070
     0
1000
MTEXTEND
  0
MTEXT
  5
1C3
330
154
100
AcDbEntity
  8
Symbole(ISO)
 62
     7
100
AcDbMText
 10
39.98018995030301
 20
21.2506400926262
 30
0.0
 40
3.499999940395355
 41
20.95325017112982
 71
     5
 72
     1
  1
10.01.2007
  7
TC 3_5 mm
 73
     1
 44
1.0
1001
ACAD
1000
MTEXTBEGIN
1070
    73
1070
     1
1070
    44
1040
1.0
1070
    74
1070
     0
1000
MTEXTEND
  0
ATTDEF
  5
1C4
330
154
100
AcDbEntity
  8
Symbole(ISO)
 62
     7
100
AcDbText
 10
50.98018995030301
 20
11.75064006282388
 30
0.0
 40
4.000000059604644
  1
hood top entry with 2 lev. PG21 ins.
 41
1.199999928474426
  7
Kopie von TC 5 mm
 11
50.98018995030301
 21
13.7506400926262
 31
0.0
100
AcDbAttributeDefinition
  3
BEZEICHNUNG
  2
BEZEICHNUNG
 70
     0
 74
     2
  0
ATTDEF
  5
1C5
330
154
100
AcDbEntity
  8
Symbole(ISO)
 62
     7
100
AcDbText
 10
164.2856470919772
 20
12.5006400926262
 30
0.0
 40
5.0
  1
1:1
 41
0.899999976158142
  7
TC 5 mm
 72
     1
 11
168.655189950303
 21
15.0006400926262
 31
0.0
100
AcDbAttributeDefinition
  3
FirstViewScale
  2
FirstViewScale
 70
     0
 74
     2
  0
ATTDEF
  5
1C6
330
154
100
AcDbEntity
  8
Symbole(ISO)
 62
     7
100
AcDbText
 10
50.98018995030301
 20
19.25064006282388
 30
0.0
 40
4.000000059604644
  1
CMV 06 G
 41
1.199999928474426
  7
Kopie von TC 5 mm
 11
50.98018995030301
 21
21.2506400926262
 31
0.0
100
AcDbAttributeDefinition
  3
BAUTEILNUMMER
  2
BAUTEILNUMMER
 70
     0
 74
     2
  0
ENDBLK
  5
156
330
154
100
AcDbEntity
  8
0
100
AcDbBlockEnd
  0
BLOCK
  5
403
330
3F8
100
AcDbEntity
  8
0
100
AcDbBlockBegin
  2
*D11
 70
     1
 10
0.0
 20
0.0
 30
0.0
  3
*D11
  1

  0
LINE
  5
4B3
330
3F8
100
AcDbEntity
  8
Bemaßungen(TC_020513_DIN)
  6
Continuous
 62
     7
370
    25
100
AcDbLine
 10
225.7801713079809
 20
158.5080221391844
 30
0.0
 11
225.7801713079809
 21
176.6406636042735
 31
0.0
  0
LINE
  5
4B4
330
3F8
100
AcDbEntity
  8
Bemaßungen(TC_020513_DIN)
  6
Continuous
 62
     7
370
    25
100
AcDbLine
 10
252.5601713079809
 20
163.6990051448095
 30
0.0
 11
252.5601713079809
 21
176.6406636042735
 31
0.0
  0
LINE
  5
4B5
330
3F8
100
AcDbEntity
  8
Bemaßungen(TC_020513_DIN)
  6
Continuous
 62
     7
370
    25
100
AcDbLine
 10
228.2801713079809
 20
174.6406636042735
 30
0.0
 11
250.0601713079809
 21
174.6406636042735
 31
0.0
  0
SOLID
  5
4B6
330
3F8
100
AcDbEntity
  8
Bemaßungen(TC_020513_DIN)
  6
Continuous
 62
     7
100
AcDbTrace
 10
228.2801713079809
 20
175.0573302709401
 30
0.0
 11
228.2801713079809
 21
174.2239969376068
 31
0.0
 12
225.7801713079809
 22
174.6406636042735
 32
0.0
 13
225.7801713079809
 23
174.6406636042735
 33
0.0
  0
SOLID
  5
4B7
330
3F8
100
AcDbEntity
  8
Bemaßungen(TC_020513_DIN)
  6
Continuous
 62
     7
100
AcDbTrace
 10
250.0601713079809
 20
175.0573302709401
 30
0.0
 11
250.0601713079809
 21
174.2239969376068
 31
0.0
 12
252.5601713079809
 22
174.6406636042735
 32
0.0
 13
252.5601713079809
 23
174.6406636042735
 33
0.0
  0
MTEXT
  5
4B8
330
3F8
100
AcDbEntity
  8
Bemaßungen(TC_020513_DIN)
  6
Continuous
 62
     7
370
    25
100
AcDbMText
 10
232.876856164734
 20
179.0600360462925
 30
0.0
 40
3.5
 41
0.0
 71
     1
 72
     1
  1
\A1; PG21
  7
Aktuell-BSI
 73
     1
 44
1.0
1001
ACAD
1000
MTEXTBEGIN
1070
    73
1070
     1
1070
    44
1040
1.0
1070
    74
1070
     0
1000
MTEXTEND
  0
POINT
  5
4B9
330
3F8
100
AcDbEntity
  8
Defpoints
  6
Continuous
 62
     0
100
AcDbPoint
 10
225.7801713079809
 20
157.5080221391844
 30
0.0
  0
POINT
  5
4BA
330
3F8
100
AcDbEntity
  8
Defpoints
  6
Continuous
 62
     0
100
AcDbPoint
 10
252.5601713079809
 20
162.6990051448095
 30
0.0
  0
POINT
  5
4BB
330
3F8
100
AcDbEntity
  8
Defpoints
  6
Continuous
 62
     0
100
AcDbPoint
 10
252.5601713079809
 20
174.6406636042735
 30
0.0
  0
ENDBLK
  5
404
330
3F8
100
AcDbEntity
  8
0
100
AcDbBlockEnd
  0
BLOCK
  5
4D2
330
4C7
100
AcDbEntity
  8
0
100
AcDbBlockBegin
  2
*D12
 70
     1
 10
0.0
 20
0.0
 30
0.0
  3
*D12
  1

  0
LINE
  5
578
330
4C7
100
AcDbEntity
  8
Bemaßungen(TC_020513_DIN)
  6
Continuous
 62
     7
370
    25
100
AcDbLine
 10
191.9868684203676
 20
106.1990051448095
 30
0.0
 11
191.9868684203676
 21
53.19900514480949
 31
0.0
  0
LINE
  5
579
330
4C7
100
AcDbEntity
  8
Bemaßungen(TC_020513_DIN)
  6
Continuous
 62
     7
370
    25
100
AcDbLine
 10
38.48686842036761
 20
106.1990051448095
 30
0.0
 11
38.48686842036761
 21
53.19900514480949
 31
0.0
  0
LINE
  5
57A
330
4C7
100
AcDbEntity
  8
Bemaßungen(TC_020513_DIN)
  6
Continuous
 62
     7
370
    25
100
AcDbLine
 10
189.4868684203676
 20
55.19900514480948
 30
0.0
 11
40.98686842036761
 21
55.19900514480948
 31
0.0
  0
SOLID
  5
57B
330
4C7
100
AcDbEntity
  8
Bemaßungen(TC_020513_DIN)
  6
Continuous
 62
     7
100
AcDbTrace
 10
189.4868684203676
 20
55.61567181147615
 30
0.0
 11
189.4868684203676
 21
54.78233847814282
 31
0.0
 12
191.9868684203676
 22
55.19900514480948
 32
0.0
 13
191.9868684203676
 23
55.19900514480948
 33
0.0
  0
SOLID
  5
57C
330
4C7
100
AcDbEntity
  8
Bemaßungen(TC_020513_DIN)
  6
Continuous
 62
     7
100
AcDbTrace
 10
40.98686842036761
 20
55.61567181147615
 30
0.0
 11
40.98686842036761
 21
54.78233847814282
 31
0.0
 12
38.48686842036761
 22
55.19900514480948
 32
0.0
 13
38.48686842036761
 23
55.19900514480948
 33
0.0
  0
MTEXT
  5
57D
330
4C7
100
AcDbEntity
  8
Bemaßungen(TC_020513_DIN)
  6
Continuous
 62
     7
370
    25
100
AcDbMText
 10
111.5422913398764
 20
59.57301605886132
 30
0.0
 40
3.5
 41
0.0
 71
     1
 72
     1
  1
\A1;154
  7
Aktuell-BSI
 73
     1
 44
1.0
1001
ACAD
1000
MTEXTBEGIN
1070
    73
1070
     1
1070
    44
1040
1.0
1070
    74
1070
     0
1000
MTEXTEND
  0
POINT
  5
57E
330
4C7
100
AcDbEntity
  8
Defpoints
  6
Continuous
 62
     0
100
AcDbPoint
 10
191.9868684203676
 20
107.1990051448095
 30
0.0
  0
POINT
  5
57F
330
4C7
100
AcDbEntity
  8
Defpoints
  6
Continuous
 62
     0
100
AcDbPoint
 10
38.48686842036761
 20
107.1990051448095
 30
0.0
  0
POINT
  5
580
330
4C7
100
AcDbEntity
  8
Defpoints
  6
Continuous
 62
     0
100
AcDbPoint
 10
38.48686842036761
 20
55.19900514480948
 30
0.0
  0
ENDBLK
  5
4D3
330
4C7
100
AcDbEntity
  8
0
100
AcDbBlockEnd
  0
BLOCK
  5
58D
330
582
100
AcDbEntity
  8
0
100
AcDbBlockBegin
  2
*D13
 70
     1
 10
0.0
 20
0.0
 30
0.0
  3
*D13
  1

  0
LINE
  5
638
330
582
100
AcDbEntity
  8
Bemaßungen(TC_020513_DIN)
  6
Continuous
 62
     7
370
    25
100
AcDbLine
 10
68.48686842036762
 20
147.6990051448095
 30
0.0
 11
68.48686842036762
 21
176.6990051448094
 31
0.0
  0
LINE
  5
639
330
582
100
AcDbEntity
  8
Bemaßungen(TC_020513_DIN)
  6
Continuous
 62
     7
370
    25
100
AcDbLine
 10
161.9868684203676
 20
147.6990051448095
 30
0.0
 11
161.9868684203676
 21
176.6990051448094
 31
0.0
  0
LINE
  5
63A
330
582
100
AcDbEntity
  8
Bemaßungen(TC_020513_DIN)
  6
Continuous
 62
     7
370
    25
100
AcDbLine
 10
70.98686842036762
 20
174.6990051448094
 30
0.0
 11
159.4868684203676
 21
174.6990051448094
 31
0.0
  0
SOLID
  5
63B
330
582
100
AcDbEntity
  8
Bemaßungen(TC_020513_DIN)
  6
Continuous
 62
     7
100
AcDbTrace
 10
70.98686842036762
 20
175.1156718114761
 30
0.0
 11
70.98686842036762
 21
174.2823384781428
 31
0.0
 12
68.48686842036762
 22
174.6990051448094
 32
0.0
 13
68.48686842036762
 23
174.6990051448094
 33
0.0
  0
SOLID
  5
63C
330
582
100
AcDbEntity
  8
Bemaßungen(TC_020513_DIN)
  6
Continuous
 62
     7
100
AcDbTrace
 10
159.4868684203676
 20
175.1156718114761
 30
0.0
 11
159.4868684203676
 21
174.2823384781428
 31
0.0
 12
161.9868684203676
 22
174.6990051448094
 32
0.0
 13
161.9868684203676
 23
174.6990051448094
 33
0.0
  0
MTEXT
  5
63D
330
582
100
AcDbEntity
  8
Bemaßungen(TC_020513_DIN)
  6
Continuous
 62
     7
370
    25
100
AcDbMText
 10
110.6780348596582
 20
179.7056900015625
 30
0.0
 40
3.5
 41
0.0
 71
     1
 72
     1
  1
\A1;93,5
  7
Aktuell-BSI
 73
     1
 44
1.0
1001
ACAD
1000
MTEXTBEGIN
1070
    73
1070
     1
1070
    44
1040
1.0
1070
    74
1070
     0
1000
MTEXTEND
  0
POINT
  5
63E
330
582
100
AcDbEntity
  8
Defpoints
  6
Continuous
 62
     0
100
AcDbPoint
 10
68.48686842036762
 20
146.6990051448095
 30
0.0
  0
POINT
  5
63F
330
582
100
AcDbEntity
  8
Defpoints
  6
Continuous
 62
     0
100
AcDbPoint
 10
161.9868684203676
 20
146.6990051448095
 30
0.0
  0
POINT
  5
640
330
582
100
AcDbEntity
  8
Defpoints
  6
Continuous
 62
     0
100
AcDbPoint
 10
161.9868684203676
 20
174.6990051448094
 30
0.0
  0
ENDBLK
  5
58E
330
582
100
AcDbEntity
  8
0
100
AcDbBlockEnd
  0
BLOCK
  5
64D
330
642
100
AcDbEntity
  8
0
100
AcDbBlockBegin
  2
*D14
 70
     1
 10
0.0
 20
0.0
 30
0.0
  3
*D14
  1

  0
LINE
  5
6FD
330
642
100
AcDbEntity
  8
Bemaßungen(TC_020513_DIN)
  6
Continuous
 62
     7
370
    25
100
AcDbLine
 10
96.23686842036761
 20
163.1990051448095
 30
0.0
 11
26.48686842036763
 21
163.1990051448095
 31
0.0
  0
LINE
  5
6FE
330
642
100
AcDbEntity
  8
Bemaßungen(TC_020513_DIN)
  6
Continuous
 62
     7
370
    25
100
AcDbLine
 10
73.48686842036761
 20
99.69900514480949
 30
0.0
 11
26.48686842036762
 21
99.69900514480951
 31
0.0
  0
LINE
  5
6FF
330
642
100
AcDbEntity
  8
Bemaßungen(TC_020513_DIN)
  6
Continuous
 62
     7
370
    25
100
AcDbLine
 10
28.48686842036764
 20
160.6990051448095
 30
0.0
 11
28.48686842036763
 21
102.1990051448095
 31
0.0
  0
SOLID
  5
700
330
642
100
AcDbEntity
  8
Bemaßungen(TC_020513_DIN)
  6
Continuous
 62
     7
100
AcDbTrace
 10
28.07020175370097
 20
160.6990051448095
 30
0.0
 11
28.90353508703431
 21
160.6990051448095
 31
0.0
 12
28.48686842036764
 22
163.1990051448095
 32
0.0
 13
28.48686842036764
 23
163.1990051448095
 33
0.0
  0
SOLID
  5
701
330
642
100
AcDbEntity
  8
Bemaßungen(TC_020513_DIN)
  6
Continuous
 62
     7
100
AcDbTrace
 10
28.07020175370096
 20
102.1990051448095
 30
0.0
 11
28.90353508703429
 21
102.1990051448095
 31
0.0
 12
28.48686842036763
 22
99.69900514480951
 32
0.0
 13
28.48686842036763
 23
99.69900514480951
 33
0.0
  0
MTEXT
  5
702
330
642
100
AcDbEntity
  8
Bemaßungen(TC_020513_DIN)
  6
Continuous
 62
     7
370
    25
100
AcDbMText
 10
23.48018356361454
 20
126.8806217887385
 30
0.0
 40
3.5
 41
0.0
 71
     1
 72
     1
  1
\A1;63,5
  7
Aktuell-BSI
 11
0.0000000000000001
 21
1.0
 31
0.0
 73
     1
 44
1.0
1001
ACAD
1000
MTEXTBEGIN
1070
    73
1070
     1
1070
    44
1040
1.0
1070
    74
1070
     0
1000
MTEXTEND
  0
POINT
  5
703
330
642
100
AcDbEntity
  8
Defpoints
  6
Continuous
 62
     0
100
AcDbPoint
 10
97.23686842036762
 20
163.1990051448095
 30
0.0
  0
POINT
  5
704
330
642
100
AcDbEntity
  8
Defpoints
  6
Continuous
 62
     0
100
AcDbPoint
 10
74.48686842036761
 20
99.69900514480949
 30
0.0
  0
POINT
  5
705
330
642
100
AcDbEntity
  8
Defpoints
  6
Continuous
 62
     0
100
AcDbPoint
 10
28.48686842036763
 20
99.69900514480951
 30
0.0
  0
ENDBLK
  5
64E
330
642
100
AcDbEntity
  8
0
100
AcDbBlockEnd
  0
BLOCK
  5
712
330
707
100
AcDbEntity
  8
0
100
AcDbBlockBegin
  2
*D15
 70
     1
 10
0.0
 20
0.0
 30
0.0
  3
*D15
  1

  0
LINE
  5
7C2
330
707
100
AcDbEntity
  8
Bemaßungen(TC_020513_DIN)
  6
Continuous
 62
     7
370
    25
100
AcDbLine
 10
255.6701713079679
 20
149.6990051448095
 30
0.0
 11
278.6701713079671
 21
149.6990051448095
 31
0.0
  0
LINE
  5
7C3
330
707
100
AcDbEntity
  8
Bemaßungen(TC_020513_DIN)
  6
Continuous
 62
     7
370
    25
100
AcDbLine
 10
255.670171307967
 20
99.69900514480949
 30
0.0
 11
278.670171307967
 21
99.69900514480949
 31
0.0
  0
LINE
  5
7C4
330
707
100
AcDbEntity
  8
Bemaßungen(TC_020513_DIN)
  6
Continuous
 62
     7
370
    25
100
AcDbLine
 10
276.6701713079671
 20
147.1990051448095
 30
0.0
 11
276.670171307967
 21
102.1990051448095
 31
0.0
  0
SOLID
  5
7C5
330
707
100
AcDbEntity
  8
Bemaßungen(TC_020513_DIN)
  6
Continuous
 62
     7
100
AcDbTrace
 10
276.2535046413004
 20
147.1990051448095
 30
0.0
 11
277.0868379746338
 21
147.1990051448095
 31
0.0
 12
276.6701713079671
 22
149.6990051448095
 32
0.0
 13
276.6701713079671
 23
149.6990051448095
 33
0.0
  0
SOLID
  5
7C6
330
707
100
AcDbEntity
  8
Bemaßungen(TC_020513_DIN)
  6
Continuous
 62
     7
100
AcDbTrace
 10
276.2535046413003
 20
102.1990051448095
 30
0.0
 11
277.0868379746337
 21
102.1990051448095
 31
0.0
 12
276.670171307967
 22
99.69900514480949
 32
0.0
 13
276.670171307967
 23
99.69900514480949
 33
0.0
  0
MTEXT
  5
7C7
330
707
100
AcDbEntity
  8
Bemaßungen(TC_020513_DIN)
  6
Continuous
 62
     7
370
    25
100
AcDbMText
 10
272.2961603939152
 20
122.1981524845093
 30
0.0
 40
3.5
 41
0.0
 71
     1
 72
     1
  1
\A1;50
  7
Aktuell-BSI
 11
0.0000000000000001
 21
1.0
 31
0.0
 73
     1
 44
1.0
1001
ACAD
1000
MTEXTBEGIN
1070
    73
1070
     1
1070
    44
1040
1.0
1070
    74
1070
     0
1000
MTEXTEND
  0
POINT
  5
7C8
330
707
100
AcDbEntity
  8
Defpoints
  6
Continuous
 62
     0
100
AcDbPoint
 10
254.6701713079679
 20
149.6990051448095
 30
0.0
  0
POINT
  5
7C9
330
707
100
AcDbEntity
  8
Defpoints
  6
Continuous
 62
     0
100
AcDbPoint
 10
254.670171307967
 20
99.69900514480949
 30
0.0
  0
POINT
  5
7CA
330
707
100
AcDbEntity
  8
Defpoints
  6
Continuous
 62
     0
100
AcDbPoint
 10
276.670171307967
 20
99.69900514480949
 30
0.0
  0
ENDBLK
  5
713
330
707
100
AcDbEntity
  8
0
100
AcDbBlockEnd
  0
BLOCK
  5
7D7
330
7CC
100
AcDbEntity
  8
0
100
AcDbBlockBegin
  2
*D16
 70
     1
 10
0.0
 20
0.0
 30
0.0
  3
*D16
  1

  0
LINE
  5
887
330
7CC
100
AcDbEntity
  8
Bemaßungen(TC_020513_DIN)
  6
Continuous
 62
     7
370
    25
100
AcDbLine
 10
217.6701713079688
 20
103.6990051448095
 30
0.0
 11
217.6701713079688
 21
62.69900514480949
 31
0.0
  0
LINE
  5
888
330
7CC
100
AcDbEntity
  8
Bemaßungen(TC_020513_DIN)
  6
Continuous
 62
     7
370
    25
100
AcDbLine
 10
260.6701713079688
 20
103.6990051448095
 30
0.0
 11
260.6701713079688
 21
62.69900514480949
 31
0.0
  0
LINE
  5
889
330
7CC
100
AcDbEntity
  8
Bemaßungen(TC_020513_DIN)
  6
Continuous
 62
     7
370
    25
100
AcDbLine
 10
220.1701713079688
 20
64.69900514480949
 30
0.0
 11
258.1701713079688
 21
64.69900514480949
 31
0.0
  0
SOLID
  5
88A
330
7CC
100
AcDbEntity
  8
Bemaßungen(TC_020513_DIN)
  6
Continuous
 62
     7
100
AcDbTrace
 10
220.1701713079688
 20
65.11567181147616
 30
0.0
 11
220.1701713079688
 21
64.28233847814282
 31
0.0
 12
217.6701713079688
 22
64.69900514480949
 32
0.0
 13
217.6701713079688
 23
64.69900514480949
 33
0.0
  0
SOLID
  5
88B
330
7CC
100
AcDbEntity
  8
Bemaßungen(TC_020513_DIN)
  6
Continuous
 62
     7
100
AcDbTrace
 10
258.1701713079688
 20
65.11567181147616
 30
0.0
 11
258.1701713079688
 21
64.28233847814282
 31
0.0
 12
260.6701713079688
 22
64.69900514480949
 32
0.0
 13
260.6701713079688
 23
64.69900514480949
 33
0.0
  0
MTEXT
  5
88C
330
7CC
100
AcDbEntity
  8
Bemaßungen(TC_020513_DIN)
  6
Continuous
 62
     7
370
    25
100
AcDbMText
 10
236.5929202847764
 20
69.07540350770172
 30
0.0
 40
3.5
 41
0.0
 71
     1
 72
     1
  1
\A1;43
  7
Aktuell-BSI
 73
     1
 44
1.0
1001
ACAD
1000
MTEXTBEGIN
1070
    73
1070
     1
1070
    44
1040
1.0
1070
    74
1070
     0
1000
MTEXTEND
  0
POINT
  5
88D
330
7CC
100
AcDbEntity
  8
Defpoints
  6
Continuous
 62
     0
100
AcDbPoint
 10
217.6701713079688
 20
104.6990051448095
 30
0.0
  0
POINT
  5
88E
330
7CC
100
AcDbEntity
  8
Defpoints
  6
Continuous
 62
     0
100
AcDbPoint
 10
260.6701713079688
 20
104.6990051448095
 30
0.0
  0
POINT
  5
88F
330
7CC
100
AcDbEntity
  8
Defpoints
  6
Continuous
 62
     0
100
AcDbPoint
 10
260.6701713079688
 20
64.69900514480949
 30
0.0
  0
ENDBLK
  5
7D8
330
7CC
100
AcDbEntity
  8
0
100
AcDbBlockEnd
  0
BLOCK
  5
89C
330
891
100
AcDbEntity
  8
0
100
AcDbBlockBegin
  2
*D17
 70
     1
 10
0.0
 20
0.0
 30
0.0
  3
*D17
  1

  0
LINE
  5
94C
330
891
100
AcDbEntity
  8
Bemaßungen(TC_020513_DIN)
  6
Continuous
 62
     7
370
    25
100
AcDbLine
 10
209.6701713079736
 20
106.1990051448095
 30
0.0
 11
209.6701713079736
 21
53.1990051448095
 31
0.0
  0
LINE
  5
94D
330
891
100
AcDbEntity
  8
Bemaßungen(TC_020513_DIN)
  6
Continuous
 62
     7
370
    25
100
AcDbLine
 10
268.6701713079736
 20
106.1990051448095
 30
0.0
 11
268.6701713079736
 21
53.1990051448095
 31
0.0
  0
LINE
  5
94E
330
891
100
AcDbEntity
  8
Bemaßungen(TC_020513_DIN)
  6
Continuous
 62
     7
370
    25
100
AcDbLine
 10
212.1701713079735
 20
55.1990051448095
 30
0.0
 11
266.1701713079736
 21
55.1990051448095
 31
0.0
  0
SOLID
  5
94F
330
891
100
AcDbEntity
  8
Bemaßungen(TC_020513_DIN)
  6
Continuous
 62
     7
100
AcDbTrace
 10
212.1701713079735
 20
55.61567181147617
 30
0.0
 11
212.1701713079735
 21
54.78233847814284
 31
0.0
 12
209.6701713079736
 22
55.1990051448095
 32
0.0
 13
209.6701713079736
 23
55.1990051448095
 33
0.0
  0
SOLID
  5
950
330
891
100
AcDbEntity
  8
Bemaßungen(TC_020513_DIN)
  6
Continuous
 62
     7
100
AcDbTrace
 10
266.1701713079736
 20
55.61567181147617
 30
0.0
 11
266.1701713079736
 21
54.78233847814284
 31
0.0
 12
268.6701713079736
 22
55.1990051448095
 32
0.0
 13
268.6701713079736
 23
55.1990051448095
 33
0.0
  0
MTEXT
  5
951
330
891
100
AcDbEntity
  8
Bemaßungen(TC_020513_DIN)
  6
Continuous
 62
     7
370
    25
100
AcDbMText
 10
236.6597688523119
 20
59.57301605886135
 30
0.0
 40
3.5
 41
0.0
 71
     1
 72
     1
  1
\A1;59
  7
Aktuell-BSI
 73
     1
 44
1.0
1001
ACAD
1000
MTEXTBEGIN
1070
    73
1070
     1
1070
    44
1040
1.0
1070
    74
1070
     0
1000
MTEXTEND
  0
POINT
  5
952
330
891
100
AcDbEntity
  8
Defpoints
  6
Continuous
 62
     0
100
AcDbPoint
 10
209.6701713079736
 20
107.1990051448095
 30
0.0
  0
POINT
  5
953
330
891
100
AcDbEntity
  8
Defpoints
  6
Continuous
 62
     0
100
AcDbPoint
 10
268.6701713079736
 20
107.1990051448095
 30
0.0
  0
POINT
  5
954
330
891
100
AcDbEntity
  8
Defpoints
  6
Continuous
 62
     0
100
AcDbPoint
 10
268.6701713079736
 20
55.1990051448095
 30
0.0
  0
ENDBLK
  5
89D
330
891
100
AcDbEntity
  8
0
100
AcDbBlockEnd
  0
ENDSEC
  0
SECTION
  2
ENTITIES
  0
INSERT
  5
153
330
37
100
AcDbEntity
  8
0
100
AcDbBlockReference
  2
Ränder Ilme Rahmen A4 quer
 10
0.0
 20
0.0
 30
0.0
  0
INSERT
  5
1C7
330
37
100
AcDbEntity
  8
0
100
AcDbBlockReference
 66
     1
  2
Schriftfelder Ilme
 10
87.01981004969702
 20
-0.0006400926262484
 30
0.0
  0
ATTRIB
  5
1C9
330
1C7
100
AcDbEntity
  8
Symbole(ISO)
 62
     7
100
AcDbText
 10
138.0
 20
11.74999997019763
 30
0.0
 40
4.000000059604644
  1
hood top entry with 2 lev. PG21 ins.
 41
1.199999928474426
  7
Kopie von TC 5 mm
 11
138.0
 21
13.74999999999995
 31
0.0
100
AcDbAttribute
  2
BEZEICHNUNG
 70
     0
 74
     2
  0
ATTRIB
  5
1CA
330
1C7
100
AcDbEntity
  8
Symbole(ISO)
 62
     7
100
AcDbText
 10
251.3054571416743
 20
12.49999999999995
 30
0.0
 40
5.0
  1
1:1
 41
0.899999976158142
  7
TC 5 mm
 72
     1
 11
255.675
 21
14.99999999999995
 31
0.0
100
AcDbAttribute
  2
FirstViewScale
 70
     0
 74
     2
  0
ATTRIB
  5
1CB
330
1C7
100
AcDbEntity
  8
Symbole(ISO)
 62
     7
100
AcDbText
 10
138.0
 20
19.24999997019763
 30
0.0
 40
4.000000059604644
  1
CMV 06 G
 41
1.199999928474426
  7
Kopie von TC 5 mm
 11
138.0
 21
21.24999999999996
 31
0.0
100
AcDbAttribute
  2
BAUTEILNUMMER
 70
     0
 74
     2
  0
SEQEND
  5
1C8
330
1C7
100
AcDbEntity
  8
0
  0
POLYLINE
  5
1CC
330
37
100
AcDbEntity
  8
Sichtbare Kanten(TC_020513_DIN)
100
AcDb2dPolyline
 66
     1
 10
0.0
 20
0.0
 30
0.0
 70
   128
  0
VERTEX
  5
1CD
330
1CC
100
AcDbEntity
  8
Sichtbare Kanten(TC_020513_DIN)
100
AcDbVertex
100
AcDb2dVertex
 10
55.73629335475482
 20
80.19900466797233
 30
0.0
  0
VERTEX
  5
1CE
330
1CC
100
AcDbEntity
  8
Sichtbare Kanten(TC_020513_DIN)
100
AcDbVertex
100
AcDb2dVertex
 10
55.74366525722064
 20
80.13371731636405
 30
0.0
  0
VERTEX
  5
1D0
330
1CC
100
AcDbEntity
  8
Sichtbare Kanten(TC_020513_DIN)
100
AcDbVertex
100
AcDb2dVertex
 10
55.75343565059222
 20
80.06883289215446
 30
0.0
  0
VERTEX
  5
1D1
330
1CC
100
AcDbEntity
  8
Sichtbare Kanten(TC_020513_DIN)
100
AcDbVertex
100
AcDb2dVertex
 10
55.76556161952533
 20
80.00455881950736
 30
0.0
  0
VERTEX
  5
1D2
330
1CC
100
AcDbEntity
  8
Sichtbare Kanten(TC_020513_DIN)
100
AcDbVertex
100
AcDb2dVertex
 10
55.78000978541888
 20
79.94110371467948
 30
0.0
  0
VERTEX
  5
1D3
330
1CC
100
AcDbEntity
  8
Sichtbare Kanten(TC_020513_DIN)
100
AcDbVertex
100
AcDb2dVertex
 10
55.79672769618548
 20
79.87867500183464
 30
0.0
  0
VERTEX
  5
1D4
330
1CC
100
AcDbEntity
  8
Sichtbare Kanten(TC_020513_DIN)
100
AcDbVertex
100
AcDb2dVertex
 10
55.81567720485248
 20
79.81747891304374
 30
0.0
  0
VERTEX
  5
1D5
330
1CC
100
AcDbEntity
  8
Sichtbare Kanten(TC_020513_DIN)
100
AcDbVertex
100
AcDb2dVertex
 10
55.83678201747455
 20
79.75782539245964
 30
0.0
  0
VERTEX
  5
1D6
330
1CC
100
AcDbEntity
  8
Sichtbare Kanten(TC_020513_DIN)
100
AcDbVertex
100
AcDb2dVertex
 10
55.85988000941791
 20
79.70015789863944
 30
0.0
  0
VERTEX
  5
1D7
330
1CC
100
AcDbEntity
  8
Sichtbare Kanten(TC_020513_DIN)
100
AcDbVertex
100
AcDb2dVertex
 10
55.88489011836566
 20
79.64466239807487
 30
0.0
  0
VERTEX
  5
1D8
330
1CC
100
AcDbEntity
  8
Sichtbare Kanten(TC_020513_DIN)
100
AcDbVertex
100
AcDb2dVertex
 10
55.91172651362933
 20
79.59151412842155
 30
0.0
  0
VERTEX
  5
1D9
330
1CC
100
AcDbEntity
  8
Sichtbare Kanten(TC_020513_DIN)
100
AcDbVertex
100
AcDb2dVertex
 10
55.94031290126361
 20
79.54089309570671
 30
0.0
  0
VERTEX
  5
1DA
330
1CC
100
AcDbEntity
  8
Sichtbare Kanten(TC_020513_DIN)
100
AcDbVertex
100
AcDb2dVertex
 10
55.97055868220843
 20
79.49297334549308
 30
0.0
  0
VERTEX
  5
1DB
330
1CC
100
AcDbEntity
  8
Sichtbare Kanten(TC_020513_DIN)
100
AcDbVertex
100
AcDb2dVertex
 10
56.00232080531634
 20
79.44802905914665
 30
0.0
  0
VERTEX
  5
1DC
330
1CC
100
AcDbEntity
  8
Sichtbare Kanten(TC_020513_DIN)
100
AcDbVertex
100
AcDb2dVertex
 10
56.03534654689349
 20
79.40640117523551
 30
0.0
  0
VERTEX
  5
1DD
330
1CC
100
AcDbEntity
  8
Sichtbare Kanten(TC_020513_DIN)
100
AcDbVertex
100
AcDb2dVertex
 10
56.06953100276507
 20
79.36820890304923
 30
0.0
  0
VERTEX
  5
1DE
330
1CC
100
AcDbEntity
  8
Sichtbare Kanten(TC_020513_DIN)
100
AcDbVertex
100
AcDb2dVertex
 10
56.10475019526996
 20
79.33357622024894
 30
0.0
  0
VERTEX
  5
1DF
330
1CC
100
AcDbEntity
  8
Sichtbare Kanten(TC_020513_DIN)
100
AcDbVertex
100
AcDb2dVertex
 10
56.14089922023334
 20
79.3026175677526
 30
0.0
  0
VERTEX
  5
1E0
330
1CC
100
AcDbEntity
  8
Sichtbare Kanten(TC_020513_DIN)
100
AcDbVertex
100
AcDb2dVertex
 10
56.17786363673724
 20
79.27544977066398
 30
0.0
  0
VERTEX
  5
1E1
330
1CC
100
AcDbEntity
  8
Sichtbare Kanten(TC_020513_DIN)
100
AcDbVertex
100
AcDb2dVertex
 10
56.21543363643207
 20
79.25225641128898
 30
0.0
  0
VERTEX
  5
1E2
330
1CC
100
AcDbEntity
  8
Sichtbare Kanten(TC_020513_DIN)
100
AcDbVertex
100
AcDb2dVertex
 10
56.25332311702289
 20
79.23319007751823
 30
0.0
  0
VERTEX
  5
1E3
330
1CC
100
AcDbEntity
  8
Sichtbare Kanten(TC_020513_DIN)
100
AcDbVertex
100
AcDb2dVertex
 10
56.29141763759173
 20
79.21829368469596
 30
0.0
  0
VERTEX
  5
1E4
330
1CC
100
AcDbEntity
  8
Sichtbare Kanten(TC_020513_DIN)
100
AcDbVertex
100
AcDb2dVertex
 10
56.32958845210589
 20
79.20760299560905
 30
0.0
  0
VERTEX
  5
1E5
330
1CC
100
AcDbEntity
  8
Sichtbare Kanten(TC_020513_DIN)
100
AcDbVertex
100
AcDb2dVertex
 10
56.36771158290423
 20
79.20116092560173
 30
0.0
  0
VERTEX
  5
1E6
330
1CC
100
AcDbEntity
  8
Sichtbare Kanten(TC_020513_DIN)
100
AcDbVertex
100
AcDb2dVertex
 10
56.4056678206972
 20
79.19900562164665
 30
0.0
  0
SEQEND
  5
1CF
330
1CC
100
AcDbEntity
  8
Sichtbare Kanten(TC_020513_DIN)
  0
LINE
  5
1E7
330
37
100
AcDbEntity
  8
Sichtbare Kanten(TC_020513_DIN)
100
AcDbLine
 10
56.40566820290588
 20
79.1990051448095
 30
0.0
 11
57.5868684203676
 21
79.1990051448095
 31
0.0
  0
ARC
  5
1E8
330
37
100
AcDbEntity
  8
Sichtbare Kanten(TC_020513_DIN)
100
AcDbCircle
 10
48.61393581579291
 20
77.99190520189694
 30
0.0
 40
0.9999999999999982
100
AcDbArc
 50
195.9999999999996
 51
286.0000000000007
  0
LINE
  5
1E9
330
37
100
AcDbEntity
  8
Sichtbare Kanten(TC_020513_DIN)
100
AcDbLine
 10
50.1386690411017
 20
77.38881598290578
 30
0.0
 11
48.88957317160993
 21
77.03064350595863
 31
0.0
  0
LINE
  5
1EA
330
37
100
AcDbEntity
  8
Sichtbare Kanten(TC_020513_DIN)
100
AcDbLine
 10
50.1386690411017
 20
77.38881598290578
 30
0.0
 11
55.95570382192613
 21
79.05682386510568
 31
0.0
  0
LINE
  5
1EB
330
37
100
AcDbEntity
  8
Sichtbare Kanten(TC_020513_DIN)
100
AcDbLine
 10
55.95570382192613
 20
79.05682386510569
 30
0.0
 11
56.45154887040901
 21
79.19900514480952
 31
0.0
  0
ARC
  5
1EC
330
37
100
AcDbEntity
  8
Sichtbare Kanten(TC_020513_DIN)
100
AcDbCircle
 10
57.58686842036761
 20
80.1990051448095
 30
0.0
 40
0.999999999999992
100
AcDbArc
 50
180.0
 51
270.0
  0
ARC
  5
1ED
330
37
100
AcDbEntity
  8
Sichtbare Kanten(TC_020513_DIN)
100
AcDbCircle
 10
181.8598010249423
 20
77.99190520189694
 30
0.0
 40
0.9999999999999932
100
AcDbArc
 50
253.9999999999992
 51
344.0000000000001
  0
LINE
  5
1EE
330
37
100
AcDbEntity
  8
Sichtbare Kanten(TC_020513_DIN)
100
AcDbLine
 10
181.5841636691253
 20
77.03064350595863
 30
0.0
 11
180.3350677996334
 21
77.38881598290578
 31
0.0
  0
LINE
  5
1EF
330
37
100
AcDbEntity
  8
Sichtbare Kanten(TC_020513_DIN)
100
AcDbLine
 10
174.5180330188091
 20
79.05682386510568
 30
0.0
 11
180.3350677996335
 21
77.38881598290578
 31
0.0
  0
LINE
  5
1F0
330
37
100
AcDbEntity
  8
Sichtbare Kanten(TC_020513_DIN)
100
AcDbLine
 10
174.0221879703262
 20
79.1990051448095
 30
0.0
 11
174.5180330188091
 21
79.05682386510568
 31
0.0
  0
POLYLINE
  5
1F1
330
37
100
AcDbEntity
  8
Sichtbare Kanten(TC_020513_DIN)
100
AcDb2dPolyline
 66
     1
 10
0.0
 20
0.0
 30
0.0
 70
   128
  0
VERTEX
  5
1F2
330
1F1
100
AcDbEntity
  8
Sichtbare Kanten(TC_020513_DIN)
100
AcDbVertex
100
AcDb2dVertex
 10
174.7374434859804
 20
80.19900466797233
 30
0.0
  0
VERTEX
  5
1F3
330
1F1
100
AcDbEntity
  8
Sichtbare Kanten(TC_020513_DIN)
100
AcDbVertex
100
AcDb2dVertex
 10
174.7300715835146
 20
80.13371731636405
 30
0.0
  0
VERTEX
  5
1F5
330
1F1
100
AcDbEntity
  8
Sichtbare Kanten(TC_020513_DIN)
100
AcDbVertex
100
AcDb2dVertex
 10
174.720301190143
 20
80.06883289215446
 30
0.0
  0
VERTEX
  5
1F6
330
1F1
100
AcDbEntity
  8
Sichtbare Kanten(TC_020513_DIN)
100
AcDbVertex
100
AcDb2dVertex
 10
174.7081752212099
 20
80.00455881950736
 30
0.0
  0
VERTEX
  5
1F7
330
1F1
100
AcDbEntity
  8
Sichtbare Kanten(TC_020513_DIN)
100
AcDbVertex
100
AcDb2dVertex
 10
174.6937270553163
 20
79.94110371467948
 30
0.0
  0
VERTEX
  5
1F8
330
1F1
100
AcDbEntity
  8
Sichtbare Kanten(TC_020513_DIN)
100
AcDbVertex
100
AcDb2dVertex
 10
174.6770091445497
 20
79.87867500183464
 30
0.0
  0
VERTEX
  5
1F9
330
1F1
100
AcDbEntity
  8
Sichtbare Kanten(TC_020513_DIN)
100
AcDbVertex
100
AcDb2dVertex
 10
174.6580596358827
 20
79.81747891304374
 30
0.0
  0
VERTEX
  5
1FA
330
1F1
100
AcDbEntity
  8
Sichtbare Kanten(TC_020513_DIN)
100
AcDbVertex
100
AcDb2dVertex
 10
174.6369548232607
 20
79.75782539245964
 30
0.0
  0
VERTEX
  5
1FB
330
1F1
100
AcDbEntity
  8
Sichtbare Kanten(TC_020513_DIN)
100
AcDbVertex
100
AcDb2dVertex
 10
174.6138568313173
 20
79.70015789863944
 30
0.0
  0
VERTEX
  5
1FC
330
1F1
100
AcDbEntity
  8
Sichtbare Kanten(TC_020513_DIN)
100
AcDbVertex
100
AcDb2dVertex
 10
174.5888467223695
 20
79.64466239807487
 30
0.0
  0
VERTEX
  5
1FD
330
1F1
100
AcDbEntity
  8
Sichtbare Kanten(TC_020513_DIN)
100
AcDbVertex
100
AcDb2dVertex
 10
174.5620103271059
 20
79.59151412842155
 30
0.0
  0
VERTEX
  5
1FE
330
1F1
100
AcDbEntity
  8
Sichtbare Kanten(TC_020513_DIN)
100
AcDbVertex
100
AcDb2dVertex
 10
174.5334239394716
 20
79.54089309570671
 30
0.0
  0
VERTEX
  5
1FF
330
1F1
100
AcDbEntity
  8
Sichtbare Kanten(TC_020513_DIN)
100
AcDbVertex
100
AcDb2dVertex
 10
174.5031781585268
 20
79.49297334549308
 30
0.0
  0
VERTEX
  5
200
330
1F1
100
AcDbEntity
  8
Sichtbare Kanten(TC_020513_DIN)
100
AcDbVertex
100
AcDb2dVertex
 10
174.4714160354189
 20
79.44802905914665
 30
0.0
  0
VERTEX
  5
201
330
1F1
100
AcDbEntity
  8
Sichtbare Kanten(TC_020513_DIN)
100
AcDbVertex
100
AcDb2dVertex
 10
174.4383902938417
 20
79.40640117523551
 30
0.0
  0
VERTEX
  5
202
330
1F1
100
AcDbEntity
  8
Sichtbare Kanten(TC_020513_DIN)
100
AcDbVertex
100
AcDb2dVertex
 10
174.4042058379701
 20
79.36820890304923
 30
0.0
  0
VERTEX
  5
203
330
1F1
100
AcDbEntity
  8
Sichtbare Kanten(TC_020513_DIN)
100
AcDbVertex
100
AcDb2dVertex
 10
174.3689866454652
 20
79.33357622024894
 30
0.0
  0
VERTEX
  5
204
330
1F1
100
AcDbEntity
  8
Sichtbare Kanten(TC_020513_DIN)
100
AcDbVertex
100
AcDb2dVertex
 10
174.3328376205019
 20
79.3026175677526
 30
0.0
  0
VERTEX
  5
205
330
1F1
100
AcDbEntity
  8
Sichtbare Kanten(TC_020513_DIN)
100
AcDbVertex
100
AcDb2dVertex
 10
174.295873203998
 20
79.27544977066398
 30
0.0
  0
VERTEX
  5
206
330
1F1
100
AcDbEntity
  8
Sichtbare Kanten(TC_020513_DIN)
100
AcDbVertex
100
AcDb2dVertex
 10
174.2583032043031
 20
79.25225641128898
 30
0.0
  0
VERTEX
  5
207
330
1F1
100
AcDbEntity
  8
Sichtbare Kanten(TC_020513_DIN)
100
AcDbVertex
100
AcDb2dVertex
 10
174.2204137237123
 20
79.23319007751823
 30
0.0
  0
VERTEX
  5
208
330
1F1
100
AcDbEntity
  8
Sichtbare Kanten(TC_020513_DIN)
100
AcDbVertex
100
AcDb2dVertex
 10
174.1823192031435
 20
79.21829368469596
 30
0.0
  0
VERTEX
  5
209
330
1F1
100
AcDbEntity
  8
Sichtbare Kanten(TC_020513_DIN)
100
AcDbVertex
100
AcDb2dVertex
 10
174.1441483886293
 20
79.20760299560905
 30
0.0
  0
VERTEX
  5
20A
330
1F1
100
AcDbEntity
  8
Sichtbare Kanten(TC_020513_DIN)
100
AcDbVertex
100
AcDb2dVertex
 10
174.106025257831
 20
79.20116092560173
 30
0.0
  0
VERTEX
  5
20B
330
1F1
100
AcDbEntity
  8
Sichtbare Kanten(TC_020513_DIN)
100
AcDbVertex
100
AcDb2dVertex
 10
174.068069020038
 20
79.19900562164665
 30
0.0
  0
SEQEND
  5
1F4
330
1F1
100
AcDbEntity
  8
Sichtbare Kanten(TC_020513_DIN)
  0
LINE
  5
20C
330
37
100
AcDbEntity
  8
Sichtbare Kanten(TC_020513_DIN)
100
AcDbLine
 10
172.8868684203676
 20
79.1990051448095
 30
0.0
 11
174.0680686378293
 21
79.1990051448095
 31
0.0
  0
ARC
  5
20D
330
37
100
AcDbEntity
  8
Sichtbare Kanten(TC_020513_DIN)
100
AcDbCircle
 10
172.8868684203676
 20
80.1990051448095
 30
0.0
 40
0.9999999999999964
100
AcDbArc
 50
270.0
 51
0.0
  0
LINE
  5
20E
330
37
100
AcDbEntity
  8
Sichtbare Kanten(TC_020513_DIN)
100
AcDbLine
 10
57.58686842036761
 20
79.1990051448095
 30
0.0
 11
66.58686842036761
 21
79.1990051448095
 31
0.0
  0
LINE
  5
20F
330
37
100
AcDbEntity
  8
Sichtbare Kanten(TC_020513_DIN)
100
AcDbLine
 10
46.8257620524036
 20
80.60005293389492
 30
0.0
 11
48.69940585664128
 21
81.13731164931563
 31
0.0
  0
LINE
  5
210
330
37
100
AcDbEntity
  8
Sichtbare Kanten(TC_020513_DIN)
100
AcDbLine
 10
46.8257620524036
 20
80.60005293389492
 30
0.0
 11
47.65267411985461
 21
77.71626784607994
 31
0.0
  0
LINE
  5
211
330
37
100
AcDbEntity
  8
Sichtbare Kanten(TC_020513_DIN)
100
AcDbLine
 10
48.69940585664128
 20
81.13731164931563
 30
0.0
 11
55.1381431320016
 21
82.98358985313845
 31
0.0
  0
ARC
  5
212
330
37
100
AcDbEntity
  8
Sichtbare Kanten(TC_020513_DIN)
100
AcDbCircle
 10
54.58686842036762
 20
84.90611324501509
 30
0.0
 40
2.0
100
AcDbArc
 50
285.9999999999999
 51
291.3706222693428
  0
LINE
  5
213
330
37
100
AcDbEntity
  8
Sichtbare Kanten(TC_020513_DIN)
100
AcDbLine
 10
56.58686842036761
 20
93.1990051448095
 30
0.0
 11
56.58686842036761
 21
80.1990051448095
 31
0.0
  0
LINE
  5
214
330
37
100
AcDbEntity
  8
Sichtbare Kanten(TC_020513_DIN)
100
AcDbLine
 10
66.58686842036761
 20
93.19900514480949
 30
0.0
 11
56.58686842036761
 21
93.1990051448095
 31
0.0
  0
LINE
  5
215
330
37
100
AcDbEntity
  8
Sichtbare Kanten(TC_020513_DIN)
100
AcDbLine
 10
66.58686842036761
 20
79.1990051448095
 30
0.0
 11
66.58686842036761
 21
93.19900514480949
 31
0.0
  0
LINE
  5
216
330
37
100
AcDbEntity
  8
Sichtbare Kanten(TC_020513_DIN)
100
AcDbLine
 10
172.8868684203676
 20
79.1990051448095
 30
0.0
 11
163.8868684203676
 21
79.1990051448095
 31
0.0
  0
LINE
  5
217
330
37
100
AcDbEntity
  8
Sichtbare Kanten(TC_020513_DIN)
100
AcDbLine
 10
173.8868684203676
 20
80.1990051448095
 30
0.0
 11
173.8868684203676
 21
93.1990051448095
 31
0.0
  0
LINE
  5
218
330
37
100
AcDbEntity
  8
Sichtbare Kanten(TC_020513_DIN)
100
AcDbLine
 10
163.8868684203676
 20
93.19900514480949
 30
0.0
 11
173.8868684203676
 21
93.1990051448095
 31
0.0
  0
LINE
  5
219
330
37
100
AcDbEntity
  8
Sichtbare Kanten(TC_020513_DIN)
100
AcDbLine
 10
163.8868684203676
 20
79.1990051448095
 30
0.0
 11
163.8868684203676
 21
93.19900514480949
 31
0.0
  0
ARC
  5
21A
330
37
100
AcDbEntity
  8
Sichtbare Kanten(TC_020513_DIN)
100
AcDbCircle
 10
175.8868684203676
 20
84.90611324501509
 30
0.0
 40
2.0
100
AcDbArc
 50
180.0
 51
248.6293777306573
  0
ARC
  5
21B
330
37
100
AcDbEntity
  8
Sichtbare Kanten(TC_020513_DIN)
100
AcDbCircle
 10
175.8868684203676
 20
84.90611324501509
 30
0.0
 40
2.0
100
AcDbArc
 50
248.6293777306563
 51
254.0000000000004
  0
ARC
  5
21C
330
37
100
AcDbEntity
  8
Sichtbare Kanten(TC_020513_DIN)
100
AcDbCircle
 10
54.58686842036761
 20
84.90611324501509
 30
0.0
 40
2.000000000000002
100
AcDbArc
 50
291.370622269343
 51
0.0
  0
LINE
  5
21D
330
37
100
AcDbEntity
  8
Sichtbare Kanten(TC_020513_DIN)
100
AcDbLine
 10
175.3355937087336
 20
82.98358985313845
 30
0.0
 11
181.7743309840939
 21
81.13731164931563
 31
0.0
  0
LINE
  5
21E
330
37
100
AcDbEntity
  8
Sichtbare Kanten(TC_020513_DIN)
100
AcDbLine
 10
182.8210627208806
 20
77.71626784607994
 30
0.0
 11
183.6479747883316
 21
80.60005293389492
 31
0.0
  0
LINE
  5
21F
330
37
100
AcDbEntity
  8
Sichtbare Kanten(TC_020513_DIN)
100
AcDbLine
 10
181.7743309840939
 20
81.13731164931563
 30
0.0
 11
183.6479747883316
 21
80.60005293389492
 31
0.0
  0
LINE
  5
220
330
37
100
AcDbEntity
  8
Sichtbare Kanten(TC_020513_DIN)
100
AcDbLine
 10
71.48686842036761
 20
149.6990051448094
 30
0.0
 11
74.48686842036763
 21
149.6990051448094
 31
0.0
  0
LINE
  5
221
330
37
100
AcDbEntity
  8
Sichtbare Kanten(TC_020513_DIN)
100
AcDbLine
 10
155.9868684203676
 20
149.6990051448094
 30
0.0
 11
74.48686842036761
 21
149.6990051448094
 31
0.0
  0
LINE
  5
222
330
37
100
AcDbEntity
  8
Sichtbare Kanten(TC_020513_DIN)
100
AcDbLine
 10
155.9868684203676
 20
149.6990051448094
 30
0.0
 11
158.9868684203676
 21
149.6990051448094
 31
0.0
  0
ARC
  5
223
330
37
100
AcDbEntity
  8
Sichtbare Kanten(TC_020513_DIN)
100
AcDbCircle
 10
71.48686842036761
 20
146.6990051448095
 30
0.0
 40
2.999999999999971
100
AcDbArc
 50
89.99999999999984
 51
180.0
  0
ARC
  5
224
330
37
100
AcDbEntity
  8
Sichtbare Kanten(TC_020513_DIN)
100
AcDbCircle
 10
158.9868684203676
 20
146.6990051448094
 30
0.0
 40
3.000000000000015
100
AcDbArc
 50
0.0
 51
89.99999999999934
  0
LINE
  5
225
330
37
100
AcDbEntity
  8
Sichtbare Kanten(TC_020513_DIN)
100
AcDbLine
 10
136.2452110335937
 20
104.6990051448095
 30
0.0
 11
94.22852580714156
 21
104.6990051448095
 31
0.0
  0
LINE
  5
226
330
37
100
AcDbEntity
  8
Sichtbare Kanten(TC_020513_DIN)
100
AcDbLine
 10
68.48586842036761
 20
104.6990051448095
 30
0.0
 11
74.48686842036761
 21
104.6990051448095
 31
0.0
  0
LINE
  5
227
330
37
100
AcDbEntity
  8
Sichtbare Kanten(TC_020513_DIN)
100
AcDbLine
 10
74.88686842036762
 20
104.6990051448095
 30
0.0
 11
74.48686842036761
 21
104.6990051448095
 31
0.0
  0
LINE
  5
228
330
37
100
AcDbEntity
  8
Sichtbare Kanten(TC_020513_DIN)
100
AcDbLine
 10
155.9868684203676
 20
104.6990051448095
 30
0.0
 11
155.5868684203676
 21
104.6990051448095
 31
0.0
  0
LINE
  5
229
330
37
100
AcDbEntity
  8
Sichtbare Kanten(TC_020513_DIN)
100
AcDbLine
 10
155.9868684203676
 20
104.6990051448095
 30
0.0
 11
161.9878684203676
 21
104.6990051448095
 31
0.0
  0
LINE
  5
22A
330
37
100
AcDbEntity
  8
Sichtbare Kanten(TC_020513_DIN)
100
AcDbLine
 10
161.9878684203676
 20
99.69900514480949
 30
0.0
 11
161.9878684203676
 21
104.6990051448095
 31
0.0
  0
LINE
  5
22B
330
37
100
AcDbEntity
  8
Sichtbare Kanten(TC_020513_DIN)
100
AcDbLine
 10
159.1101652071156
 20
99.69900514480949
 30
0.0
 11
161.9878684203676
 21
99.69900514480949
 31
0.0
  0
LINE
  5
22C
330
37
100
AcDbEntity
  8
Sichtbare Kanten(TC_020513_DIN)
100
AcDbLine
 10
143.0092650860853
 20
99.69900514480949
 30
0.0
 11
87.46447175464997
 21
99.69900514480949
 31
0.0
  0
LINE
  5
22D
330
37
100
AcDbEntity
  8
Sichtbare Kanten(TC_020513_DIN)
100
AcDbLine
 10
68.48586842036761
 20
99.69900514480949
 30
0.0
 11
68.48586842036761
 21
104.6990051448095
 31
0.0
  0
LINE
  5
22E
330
37
100
AcDbEntity
  8
Sichtbare Kanten(TC_020513_DIN)
100
AcDbLine
 10
68.48586842036761
 20
99.69900514480949
 30
0.0
 11
71.36357163361957
 21
99.69900514480949
 31
0.0
  0
LINE
  5
22F
330
37
100
AcDbEntity
  8
Sichtbare Kanten(TC_020513_DIN)
100
AcDbLine
 10
161.9868684203676
 20
118.4490051448095
 30
0.0
 11
161.9868684203676
 21
146.6990051448095
 31
0.0
  0
LINE
  5
230
330
37
100
AcDbEntity
  8
Sichtbare Kanten(TC_020513_DIN)
100
AcDbLine
 10
161.9868684203676
 20
115.9490051448095
 30
0.0
 11
161.9868684203676
 21
116.9490051448095
 31
0.0
  0
LINE
  5
231
330
37
100
AcDbEntity
  8
Sichtbare Kanten(TC_020513_DIN)
100
AcDbLine
 10
161.9868684203676
 20
113.4490051448095
 30
0.0
 11
161.9868684203676
 21
114.4490051448095
 31
0.0
  0
LINE
  5
232
330
37
100
AcDbEntity
  8
Sichtbare Kanten(TC_020513_DIN)
100
AcDbLine
 10
161.9868684203676
 20
104.6990051448095
 30
0.0
 11
161.9868684203676
 21
111.9490051448095
 31
0.0
  0
LINE
  5
233
330
37
100
AcDbEntity
  8
Sichtbare Kanten(TC_020513_DIN)
100
AcDbLine
 10
155.9868684203676
 20
118.4490051448095
 30
0.0
 11
161.9868684203676
 21
118.4490051448095
 31
0.0
  0
LINE
  5
234
330
37
100
AcDbEntity
  8
Sichtbare Kanten(TC_020513_DIN)
100
AcDbLine
 10
68.48686842036761
 20
111.9490051448095
 30
0.0
 11
68.48686842036761
 21
104.6990051448095
 31
0.0
  0
LINE
  5
235
330
37
100
AcDbEntity
  8
Sichtbare Kanten(TC_020513_DIN)
100
AcDbLine
 10
68.48686842036762
 20
114.4490051448095
 30
0.0
 11
68.48686842036762
 21
113.4490051448095
 31
0.0
  0
LINE
  5
236
330
37
100
AcDbEntity
  8
Sichtbare Kanten(TC_020513_DIN)
100
AcDbLine
 10
68.48686842036762
 20
116.9490051448095
 30
0.0
 11
68.48686842036762
 21
115.9490051448095
 31
0.0
  0
LINE
  5
237
330
37
100
AcDbEntity
  8
Sichtbare Kanten(TC_020513_DIN)
100
AcDbLine
 10
68.48686842036762
 20
146.6990051448095
 30
0.0
 11
68.48686842036762
 21
118.4490051448095
 31
0.0
  0
LINE
  5
238
330
37
100
AcDbEntity
  8
Sichtbare Kanten(TC_020513_DIN)
100
AcDbLine
 10
74.48686842036763
 20
116.9490051448095
 30
0.0
 11
68.48686842036762
 21
116.9490051448095
 31
0.0
  0
LINE
  5
239
330
37
100
AcDbEntity
  8
Sichtbare Kanten(TC_020513_DIN)
100
AcDbLine
 10
161.9868684203676
 20
116.9490051448095
 30
0.0
 11
155.9868684203676
 21
116.9490051448095
 31
0.0
  0
LINE
  5
23A
330
37
100
AcDbEntity
  8
Sichtbare Kanten(TC_020513_DIN)
100
AcDbLine
 10
155.9868684203676
 20
115.9490051448095
 30
0.0
 11
161.9868684203676
 21
115.9490051448095
 31
0.0
  0
LINE
  5
23B
330
37
100
AcDbEntity
  8
Sichtbare Kanten(TC_020513_DIN)
100
AcDbLine
 10
68.48686842036762
 20
115.9490051448095
 30
0.0
 11
74.48686842036763
 21
115.9490051448095
 31
0.0
  0
LINE
  5
23C
330
37
100
AcDbEntity
  8
Sichtbare Kanten(TC_020513_DIN)
100
AcDbLine
 10
68.48686842036762
 20
118.4490051448095
 30
0.0
 11
74.48686842036763
 21
118.4490051448095
 31
0.0
  0
LINE
  5
23D
330
37
100
AcDbEntity
  8
Sichtbare Kanten(TC_020513_DIN)
100
AcDbLine
 10
74.48686842036763
 20
114.4490051448095
 30
0.0
 11
68.48686842036762
 21
114.4490051448095
 31
0.0
  0
LINE
  5
23E
330
37
100
AcDbEntity
  8
Sichtbare Kanten(TC_020513_DIN)
100
AcDbLine
 10
161.9868684203676
 20
114.4490051448095
 30
0.0
 11
155.9868684203676
 21
114.4490051448095
 31
0.0
  0
LINE
  5
23F
330
37
100
AcDbEntity
  8
Sichtbare Kanten(TC_020513_DIN)
100
AcDbLine
 10
155.9868684203676
 20
113.4490051448095
 30
0.0
 11
161.9868684203676
 21
113.4490051448095
 31
0.0
  0
LINE
  5
240
330
37
100
AcDbEntity
  8
Sichtbare Kanten(TC_020513_DIN)
100
AcDbLine
 10
68.48686842036762
 20
113.4490051448095
 30
0.0
 11
74.48686842036763
 21
113.4490051448095
 31
0.0
  0
LINE
  5
241
330
37
100
AcDbEntity
  8
Sichtbare Kanten(TC_020513_DIN)
100
AcDbLine
 10
74.48686842036761
 20
111.9490051448095
 30
0.0
 11
68.48686842036761
 21
111.9490051448095
 31
0.0
  0
LINE
  5
242
330
37
100
AcDbEntity
  8
Sichtbare Kanten(TC_020513_DIN)
100
AcDbLine
 10
161.9868684203676
 20
111.9490051448095
 30
0.0
 11
155.9868684203676
 21
111.9490051448095
 31
0.0
  0
LINE
  5
243
330
37
100
AcDbEntity
  8
Sichtbare Kanten(TC_020513_DIN)
100
AcDbLine
 10
161.9868684203676
 20
116.9490051448095
 30
0.0
 11
161.9868684203676
 21
118.4490051448095
 31
0.0
  0
LINE
  5
244
330
37
100
AcDbEntity
  8
Sichtbare Kanten(TC_020513_DIN)
100
AcDbLine
 10
161.9868684203676
 20
114.4490051448095
 30
0.0
 11
161.9868684203676
 21
115.9490051448095
 31
0.0
  0
LINE
  5
245
330
37
100
AcDbEntity
  8
Sichtbare Kanten(TC_020513_DIN)
100
AcDbLine
 10
161.9868684203676
 20
111.9490051448095
 30
0.0
 11
161.9868684203676
 21
113.4490051448095
 31
0.0
  0
LINE
  5
246
330
37
100
AcDbEntity
  8
Sichtbare Kanten(TC_020513_DIN)
100
AcDbLine
 10
155.9868684203676
 20
118.4490051448095
 30
0.0
 11
74.48686842036763
 21
118.4490051448095
 31
0.0
  0
LINE
  5
247
330
37
100
AcDbEntity
  8
Sichtbare Kanten(TC_020513_DIN)
100
AcDbLine
 10
115.2368684203676
 20
128.4504154225778
 30
0.0
 11
108.7364238153415
 21
132.1990051448095
 31
0.0
  0
LINE
  5
248
330
37
100
AcDbEntity
  8
Sichtbare Kanten(TC_020513_DIN)
100
AcDbLine
 10
108.7364238153415
 20
132.1990051448095
 30
0.0
 11
115.2368684203676
 21
135.9475948670412
 31
0.0
  0
LINE
  5
249
330
37
100
AcDbEntity
  8
Sichtbare Kanten(TC_020513_DIN)
100
AcDbLine
 10
115.2368684203676
 20
135.9475948670412
 30
0.0
 11
121.7373130253937
 21
132.1990051448095
 31
0.0
  0
LINE
  5
24A
330
37
100
AcDbEntity
  8
Sichtbare Kanten(TC_020513_DIN)
100
AcDbLine
 10
121.7373130253937
 20
132.1990051448095
 30
0.0
 11
115.2368684203676
 21
128.4504154225778
 31
0.0
  0
LINE
  5
24B
330
37
100
AcDbEntity
  8
Sichtbare Kanten(TC_020513_DIN)
100
AcDbLine
 10
68.48686842036761
 20
113.4490051448095
 30
0.0
 11
68.48686842036761
 21
111.9490051448095
 31
0.0
  0
LINE
  5
24C
330
37
100
AcDbEntity
  8
Sichtbare Kanten(TC_020513_DIN)
100
AcDbLine
 10
68.48686842036761
 20
115.9490051448095
 30
0.0
 11
68.48686842036761
 21
114.4490051448095
 31
0.0
  0
LINE
  5
24D
330
37
100
AcDbEntity
  8
Sichtbare Kanten(TC_020513_DIN)
100
AcDbLine
 10
68.48686842036761
 20
118.4490051448095
 30
0.0
 11
68.48686842036761
 21
116.9490051448095
 31
0.0
  0
LINE
  5
24E
330
37
100
AcDbEntity
  8
Sichtbare Kanten(TC_020513_DIN)
100
AcDbLine
 10
74.48686842036763
 20
116.9490051448095
 30
0.0
 11
155.9868684203676
 21
116.9490051448095
 31
0.0
  0
LINE
  5
24F
330
37
100
AcDbEntity
  8
Sichtbare Kanten(TC_020513_DIN)
100
AcDbLine
 10
155.9868684203676
 20
115.9490051448095
 30
0.0
 11
74.48686842036763
 21
115.9490051448095
 31
0.0
  0
LINE
  5
250
330
37
100
AcDbEntity
  8
Sichtbare Kanten(TC_020513_DIN)
100
AcDbLine
 10
74.48686842036763
 20
114.4490051448095
 30
0.0
 11
155.9868684203676
 21
114.4490051448095
 31
0.0
  0
LINE
  5
251
330
37
100
AcDbEntity
  8
Sichtbare Kanten(TC_020513_DIN)
100
AcDbLine
 10
155.9868684203676
 20
113.4490051448095
 30
0.0
 11
74.48686842036763
 21
113.4490051448095
 31
0.0
  0
LINE
  5
252
330
37
100
AcDbEntity
  8
Sichtbare Kanten(TC_020513_DIN)
100
AcDbLine
 10
74.48686842036761
 20
111.9490051448095
 30
0.0
 11
155.9868684203676
 21
111.9490051448095
 31
0.0
  0
LINE
  5
253
330
37
100
AcDbEntity
  8
Sichtbare Kanten(TC_020513_DIN)
100
AcDbLine
 10
116.9868684203676
 20
130.6426717559452
 30
0.0
 11
116.9868684203676
 21
133.7553385336737
 31
0.0
  0
ARC
  5
254
330
37
100
AcDbEntity
  8
Sichtbare Kanten(TC_020513_DIN)
100
AcDbCircle
 10
117.2368684203676
 20
130.6426717559452
 30
0.0
 40
0.2499999999999994
100
AcDbArc
 50
180.0
 51
299.9706156499831
  0
LINE
  5
255
330
37
100
AcDbEntity
  8
Sichtbare Kanten(TC_020513_DIN)
100
AcDbLine
 10
118.3617573678601
 20
131.0027679934342
 30
0.0
 11
117.3617573678601
 21
130.4261013267675
 31
0.0
  0
ARC
  5
256
330
37
100
AcDbEntity
  8
Sichtbare Kanten(TC_020513_DIN)
100
AcDbCircle
 10
118.2368684203676
 20
131.2193384226119
 30
0.0
 40
0.2500000000000003
100
AcDbArc
 50
299.9706156499831
 51
119.9706156499831
  0
LINE
  5
257
330
37
100
AcDbEntity
  8
Sichtbare Kanten(TC_020513_DIN)
100
AcDbLine
 10
117.4868684203676
 20
131.0754281448436
 30
0.0
 11
118.1119794728751
 21
131.4359088517896
 31
0.0
  0
LINE
  5
258
330
37
100
AcDbEntity
  8
Sichtbare Kanten(TC_020513_DIN)
100
AcDbLine
 10
117.4868684203676
 20
131.9490051448095
 30
0.0
 11
117.4868684203676
 21
131.0754281448436
 31
0.0
  0
LINE
  5
259
330
37
100
AcDbEntity
  8
Sichtbare Kanten(TC_020513_DIN)
100
AcDbLine
 10
118.2368684203676
 20
131.9490051448095
 30
0.0
 11
117.4868684203676
 21
131.9490051448095
 31
0.0
  0
ARC
  5
25A
330
37
100
AcDbEntity
  8
Sichtbare Kanten(TC_020513_DIN)
100
AcDbCircle
 10
118.2368684203676
 20
132.1990051448095
 30
0.0
 40
0.2499999999999991
100
AcDbArc
 50
270.0
 51
90.0
  0
LINE
  5
25B
330
37
100
AcDbEntity
  8
Sichtbare Kanten(TC_020513_DIN)
100
AcDbLine
 10
117.4868684203676
 20
132.4490051448095
 30
0.0
 11
118.2368684203676
 21
132.4490051448095
 31
0.0
  0
LINE
  5
25C
330
37
100
AcDbEntity
  8
Sichtbare Kanten(TC_020513_DIN)
100
AcDbLine
 10
117.4868684203676
 20
133.3225821447753
 30
0.0
 11
117.4868684203676
 21
132.4490051448095
 31
0.0
  0
LINE
  5
25D
330
37
100
AcDbEntity
  8
Sichtbare Kanten(TC_020513_DIN)
100
AcDbLine
 10
118.1119794728751
 20
132.9621014378293
 30
0.0
 11
117.4868684203676
 21
133.3225821447753
 31
0.0
  0
ARC
  5
25E
330
37
100
AcDbEntity
  8
Sichtbare Kanten(TC_020513_DIN)
100
AcDbCircle
 10
118.2368684203676
 20
133.178671867007
 30
0.0
 40
0.2500000000000008
100
AcDbArc
 50
240.0293843500169
 51
60.02938435001691
  0
LINE
  5
25F
330
37
100
AcDbEntity
  8
Sichtbare Kanten(TC_020513_DIN)
100
AcDbLine
 10
117.3617573678601
 20
133.9719089628514
 30
0.0
 11
118.3617573678601
 21
133.3952422961847
 31
0.0
  0
ARC
  5
260
330
37
100
AcDbEntity
  8
Sichtbare Kanten(TC_020513_DIN)
100
AcDbCircle
 10
117.2368684203676
 20
133.7553385336737
 30
0.0
 40
0.2500000000000005
100
AcDbArc
 50
60.0293843500169
 51
180.0
  0
ARC
  5
261
330
37
100
AcDbEntity
  8
Sichtbare Kanten(TC_020513_DIN)
100
AcDbCircle
 10
112.2368684203676
 20
131.2090051448095
 30
0.0
 40
0.2500000000000002
100
AcDbArc
 50
180.0
 51
0.0
  0
LINE
  5
262
330
37
100
AcDbEntity
  8
Sichtbare Kanten(TC_020513_DIN)
100
AcDbLine
 10
112.4868684203676
 20
133.1890051448095
 30
0.0
 11
112.4868684203676
 21
131.2090051448095
 31
0.0
  0
ARC
  5
263
330
37
100
AcDbEntity
  8
Sichtbare Kanten(TC_020513_DIN)
100
AcDbCircle
 10
112.2368684203676
 20
133.1890051448094
 30
0.0
 40
0.2500000000000002
100
AcDbArc
 50
0.0
 51
180.0
  0
LINE
  5
264
330
37
100
AcDbEntity
  8
Sichtbare Kanten(TC_020513_DIN)
100
AcDbLine
 10
111.9868684203676
 20
131.2090051448095
 30
0.0
 11
111.9868684203676
 21
133.1890051448095
 31
0.0
  0
LINE
  5
265
330
37
100
AcDbEntity
  8
Sichtbare Kanten(TC_020513_DIN)
100
AcDbLine
 10
109.2368684203676
 20
132.1990051448094
 30
0.0
 11
115.2368684203676
 21
128.7390051448095
 31
0.0
  0
LINE
  5
266
330
37
100
AcDbEntity
  8
Sichtbare Kanten(TC_020513_DIN)
100
AcDbLine
 10
115.2368684203676
 20
128.7390051448095
 30
0.0
 11
121.2368684203676
 21
132.1990051448094
 31
0.0
  0
LINE
  5
267
330
37
100
AcDbEntity
  8
Sichtbare Kanten(TC_020513_DIN)
100
AcDbLine
 10
121.2368684203676
 20
132.1990051448094
 30
0.0
 11
115.2368684203676
 21
135.6590051448095
 31
0.0
  0
LINE
  5
268
330
37
100
AcDbEntity
  8
Sichtbare Kanten(TC_020513_DIN)
100
AcDbLine
 10
115.2368684203676
 20
135.6590051448095
 30
0.0
 11
109.2368684203676
 21
132.1990051448094
 31
0.0
  0
ARC
  5
269
330
37
100
AcDbEntity
  8
Sichtbare Kanten(TC_020513_DIN)
100
AcDbCircle
 10
113.2368684203676
 20
130.6426717559452
 30
0.0
 40
0.2499999999999965
100
AcDbArc
 50
180.0
 51
240.0293843500169
  0
LINE
  5
26A
330
37
100
AcDbEntity
  8
Sichtbare Kanten(TC_020513_DIN)
100
AcDbLine
 10
115.1119794728751
 20
129.2727679934342
 30
0.0
 11
113.1119794728751
 21
130.4261013267675
 31
0.0
  0
ARC
  5
26B
330
37
100
AcDbEntity
  8
Sichtbare Kanten(TC_020513_DIN)
100
AcDbCircle
 10
115.2368684203676
 20
129.4893384226119
 30
0.0
 40
0.2499999999999994
100
AcDbArc
 50
240.0293843500169
 51
60.02938435001691
  0
LINE
  5
26C
330
37
100
AcDbEntity
  8
Sichtbare Kanten(TC_020513_DIN)
100
AcDbLine
 10
113.4868684203676
 20
130.7870948115103
 30
0.0
 11
115.3617573678601
 21
129.7059088517896
 31
0.0
  0
LINE
  5
26D
330
37
100
AcDbEntity
  8
Sichtbare Kanten(TC_020513_DIN)
100
AcDbLine
 10
113.4868684203676
 20
133.7553385336737
 30
0.0
 11
113.4868684203676
 21
130.7870948115103
 31
0.0
  0
ARC
  5
26E
330
37
100
AcDbEntity
  8
Sichtbare Kanten(TC_020513_DIN)
100
AcDbCircle
 10
113.2368684203676
 20
133.7553385336737
 30
0.0
 40
0.25
100
AcDbArc
 50
0.0
 51
180.0
  0
LINE
  5
26F
330
37
100
AcDbEntity
  8
Sichtbare Kanten(TC_020513_DIN)
100
AcDbLine
 10
112.9868684203676
 20
130.6426717559452
 30
0.0
 11
112.9868684203676
 21
133.7553385336737
 31
0.0
  0
ARC
  5
270
330
37
100
AcDbEntity
  8
Sichtbare Kanten(TC_020513_DIN)
100
AcDbCircle
 10
114.2368684203676
 20
131.2090051448095
 30
0.0
 40
0.2500000000000002
100
AcDbArc
 50
180.0
 51
0.0
  0
LINE
  5
271
330
37
100
AcDbEntity
  8
Sichtbare Kanten(TC_020513_DIN)
100
AcDbLine
 10
114.4868684203676
 20
133.5792361720743
 30
0.0
 11
114.4868684203676
 21
131.2090051448095
 31
0.0
  0
LINE
  5
272
330
37
100
AcDbEntity
  8
Sichtbare Kanten(TC_020513_DIN)
100
AcDbLine
 10
115.2368684203676
 20
132.5746228225893
 30
0.0
 11
114.4868684203676
 21
133.5792361720743
 31
0.0
  0
LINE
  5
273
330
37
100
AcDbEntity
  8
Sichtbare Kanten(TC_020513_DIN)
100
AcDbLine
 10
115.9868684203676
 20
133.5792361720743
 30
0.0
 11
115.2368684203676
 21
132.5746228225893
 31
0.0
  0
LINE
  5
274
330
37
100
AcDbEntity
  8
Sichtbare Kanten(TC_020513_DIN)
100
AcDbLine
 10
115.9868684203676
 20
130.0660050892786
 30
0.0
 11
115.9868684203676
 21
133.5792361720743
 31
0.0
  0
ARC
  5
275
330
37
100
AcDbEntity
  8
Sichtbare Kanten(TC_020513_DIN)
100
AcDbCircle
 10
116.2368684203676
 20
130.0660050892786
 30
0.0
 40
0.2499999999999994
100
AcDbArc
 50
180.0
 51
0.0
  0
LINE
  5
276
330
37
100
AcDbEntity
  8
Sichtbare Kanten(TC_020513_DIN)
100
AcDbLine
 10
116.4868684203676
 20
134.3320052003404
 30
0.0
 11
116.4868684203676
 21
130.0660050892786
 31
0.0
  0
ARC
  5
277
330
37
100
AcDbEntity
  8
Sichtbare Kanten(TC_020513_DIN)
100
AcDbCircle
 10
116.2368684203676
 20
134.3320052003404
 30
0.0
 40
0.2500000000000005
100
AcDbArc
 50
0.0
 51
143.2566048621631
  0
LINE
  5
278
330
37
100
AcDbEntity
  8
Sichtbare Kanten(TC_020513_DIN)
100
AcDbLine
 10
115.2368684203676
 20
133.4104186461317
 30
0.0
 11
116.0365377253207
 21
134.4815632580371
 31
0.0
  0
LINE
  5
279
330
37
100
AcDbEntity
  8
Sichtbare Kanten(TC_020513_DIN)
100
AcDbLine
 10
114.4371991154145
 20
134.4815632580371
 30
0.0
 11
115.2368684203676
 21
133.4104186461317
 31
0.0
  0
ARC
  5
27A
330
37
100
AcDbEntity
  8
Sichtbare Kanten(TC_020513_DIN)
100
AcDbCircle
 10
114.2368684203676
 20
134.3320052003404
 30
0.0
 40
0.2499999999999991
100
AcDbArc
 50
36.74339513783684
 51
180.0
  0
LINE
  5
27B
330
37
100
AcDbEntity
  8
Sichtbare Kanten(TC_020513_DIN)
100
AcDbLine
 10
113.9868684203676
 20
131.2090051448095
 30
0.0
 11
113.9868684203676
 21
134.3320052003404
 31
0.0
  0
LINE
  5
27C
330
37
100
AcDbEntity
  8
Sichtbare Kanten(TC_020513_DIN)
100
AcDbLine
 10
97.23686842036762
 20
163.1990051448095
 30
0.0
 11
133.2368684203676
 21
163.1990051448095
 31
0.0
  0
LINE
  5
27D
330
37
100
AcDbEntity
  8
Sichtbare Kanten(TC_020513_DIN)
100
AcDbLine
 10
133.2368684203676
 20
163.1990051448095
 30
0.0
 11
133.2368684203676
 21
149.6990051448094
 31
0.0
  0
LINE
  5
27E
330
37
100
AcDbEntity
  8
Sichtbare Kanten(TC_020513_DIN)
100
AcDbLine
 10
97.23686842036762
 20
163.1990051448095
 30
0.0
 11
97.23686842036762
 21
149.6990051448094
 31
0.0
  0
LINE
  5
27F
330
37
100
AcDbEntity
  8
Sichtbare Kanten(TC_020513_DIN)
100
AcDbLine
 10
66.58686842036761
 20
91.19900514480947
 30
0.0
 11
66.78686842036762
 21
91.19900514480947
 31
0.0
  0
LINE
  5
280
330
37
100
AcDbEntity
  8
Sichtbare Kanten(TC_020513_DIN)
100
AcDbLine
 10
66.78686842036762
 20
81.19900514480947
 30
0.0
 11
66.58686842036761
 21
81.19900514480947
 31
0.0
  0
LINE
  5
281
330
37
100
AcDbEntity
  8
Sichtbare Kanten(TC_020513_DIN)
100
AcDbLine
 10
66.78686842036762
 20
79.19900514480947
 30
0.0
 11
66.78686842036762
 21
81.19900514480947
 31
0.0
  0
LINE
  5
282
330
37
100
AcDbEntity
  8
Sichtbare Kanten(TC_020513_DIN)
100
AcDbLine
 10
87.66951150297147
 20
79.19900514480949
 30
0.0
 11
66.78686842036762
 21
79.19900514480947
 31
0.0
  0
LINE
  5
283
330
37
100
AcDbEntity
  8
Sichtbare Kanten(TC_020513_DIN)
100
AcDbLine
 10
77.10319162914045
 20
106.3700325590341
 30
0.0
 11
81.07135258942347
 21
107.8853130275571
 31
0.0
  0
ARC
  5
284
330
37
100
AcDbEntity
  8
Sichtbare Kanten(TC_020513_DIN)
100
AcDbCircle
 10
78.88686842036761
 20
101.6990051448095
 30
0.0
 40
5.000000000000008
100
AcDbArc
 50
110.899838020126
 51
144.8503101724548
  0
LINE
  5
285
330
37
100
AcDbEntity
  8
Sichtbare Kanten(TC_020513_DIN)
100
AcDbLine
 10
66.78686842036762
 20
93.19900514480949
 30
0.0
 11
74.7986147409794
 21
104.5775780295856
 31
0.0
  0
LINE
  5
286
330
37
100
AcDbEntity
  8
Sichtbare Kanten(TC_020513_DIN)
100
AcDbLine
 10
66.78686842036762
 20
91.19900514480947
 30
0.0
 11
66.78686842036762
 21
93.19900514480949
 31
0.0
  0
CIRCLE
  5
287
330
37
100
AcDbEntity
  8
Sichtbare Kanten(TC_020513_DIN)
100
AcDbCircle
 10
97.98686842036762
 20
89.69900514480949
 30
0.0
 40
1.25
  0
CIRCLE
  5
288
330
37
100
AcDbEntity
  8
Sichtbare Kanten(TC_020513_DIN)
100
AcDbCircle
 10
78.88686842036761
 20
101.6990051448095
 30
0.0
 40
1.250000000000004
  0
ARC
  5
289
330
37
100
AcDbEntity
  8
Sichtbare Kanten(TC_020513_DIN)
100
AcDbCircle
 10
90.48686842036762
 20
90.77592822173258
 30
0.0
 40
11.82692307692308
100
AcDbArc
 50
270.0
 51
351.8287664400503
  0
ARC
  5
28A
330
37
100
AcDbEntity
  8
Sichtbare Kanten(TC_020513_DIN)
100
AcDbCircle
 10
97.98686842036762
 20
89.69900514480949
 30
0.0
 40
4.25
100
AcDbArc
 50
351.8287664400501
 51
221.0047368796675
  0
ARC
  5
28B
330
37
100
AcDbEntity
  8
Sichtbare Kanten(TC_020513_DIN)
100
AcDbCircle
 10
92.89294488533499
 20
85.27018554820807
 30
0.0
 40
2.499999999999991
100
AcDbArc
 50
344.2447976051871
 51
41.00473687966757
  0
ARC
  5
28C
330
37
100
AcDbEntity
  8
Sichtbare Kanten(TC_020513_DIN)
100
AcDbCircle
 10
90.48686842036762
 20
85.94900514480949
 30
0.0
 40
4.999999999999995
100
AcDbArc
 50
270.0000000000002
 51
344.2447976051876
  0
ARC
  5
28D
330
37
100
AcDbEntity
  8
Sichtbare Kanten(TC_020513_DIN)
100
AcDbCircle
 10
90.48686842036762
 20
94.94900514480949
 30
0.0
 40
14.00000000000001
100
AcDbArc
 50
175.3104084914711
 51
270.0
  0
ARC
  5
28E
330
37
100
AcDbEntity
  8
Sichtbare Kanten(TC_020513_DIN)
100
AcDbCircle
 10
80.0220197373788
 20
95.8074584295881
 30
0.0
 40
3.500000000000007
100
AcDbArc
 50
100.9103759242854
 51
175.3104084914709
  0
ARC
  5
28F
330
37
100
AcDbEntity
  8
Sichtbare Kanten(TC_020513_DIN)
100
AcDbCircle
 10
78.88638013681698
 20
101.6990051448095
 30
0.0
 40
2.499999999999998
100
AcDbArc
 50
280.9103759242853
 51
9.594068226860343
  0
ARC
  5
290
330
37
100
AcDbEntity
  8
Sichtbare Kanten(TC_020513_DIN)
100
AcDbCircle
 10
84.80245991991658
 20
102.6990051448095
 30
0.0
 40
3.5
100
AcDbArc
 50
66.95504055270736
 51
189.5940682268605
  0
ARC
  5
291
330
37
100
AcDbEntity
  8
Sichtbare Kanten(TC_020513_DIN)
100
AcDbCircle
 10
90.48686842036762
 20
94.94900514480949
 30
0.0
 40
16.0
100
AcDbArc
 50
100.1935421002288
 51
270.0
  0
ARC
  5
292
330
37
100
AcDbEntity
  8
Sichtbare Kanten(TC_020513_DIN)
100
AcDbCircle
 10
97.98686842036762
 20
89.69900514480949
 30
0.0
 40
5.500000000000001
100
AcDbArc
 50
300.6211178286512
 51
241.4725646696101
  0
LINE
  5
293
330
37
100
AcDbEntity
  8
Sichtbare Kanten(TC_020513_DIN)
100
AcDbLine
 10
91.98686842036762
 20
87.6990051448095
 30
0.0
 11
91.59715261965338
 21
81.0738365326673
 31
0.0
  0
LINE
  5
294
330
37
100
AcDbEntity
  8
Sichtbare Kanten(TC_020513_DIN)
100
AcDbLine
 10
88.98686842036765
 20
87.6990051448095
 30
0.0
 11
91.98686842036762
 21
87.6990051448095
 31
0.0
  0
ARC
  5
295
330
37
100
AcDbEntity
  8
Sichtbare Kanten(TC_020513_DIN)
100
AcDbCircle
 10
88.98686842036761
 20
90.1990051448095
 30
0.0
 40
2.499999999999991
100
AcDbArc
 50
180.0
 51
270.0
  0
LINE
  5
296
330
37
100
AcDbEntity
  8
Sichtbare Kanten(TC_020513_DIN)
100
AcDbLine
 10
86.48686842036761
 20
98.19900514480949
 30
0.0
 11
86.48686842036765
 21
90.1990051448095
 31
0.0
  0
ARC
  5
297
330
37
100
AcDbEntity
  8
Sichtbare Kanten(TC_020513_DIN)
100
AcDbCircle
 10
87.98686842036758
 20
98.1990051448095
 30
0.0
 40
1.499999999999962
100
AcDbArc
 50
128.402820622293
 51
180.0
  0
LINE
  5
298
330
37
100
AcDbEntity
  8
Sichtbare Kanten(TC_020513_DIN)
100
AcDbLine
 10
91.35605145068311
 20
102.7837451456915
 30
0.0
 11
87.05508888023977
 21
99.37449946151168
 31
0.0
  0
LINE
  5
299
330
37
100
AcDbEntity
  8
Sichtbare Kanten(TC_020513_DIN)
100
AcDbLine
 10
163.8868684203676
 20
91.19900514480947
 30
0.0
 11
163.6868684203676
 21
91.19900514480947
 31
0.0
  0
LINE
  5
29A
330
37
100
AcDbEntity
  8
Sichtbare Kanten(TC_020513_DIN)
100
AcDbLine
 10
163.6868684203676
 20
91.19900514480947
 30
0.0
 11
163.6868684203676
 21
93.19900514480949
 31
0.0
  0
LINE
  5
29B
330
37
100
AcDbEntity
  8
Sichtbare Kanten(TC_020513_DIN)
100
AcDbLine
 10
163.6868684203676
 20
93.19900514480949
 30
0.0
 11
155.6751220997558
 21
104.5775780295856
 31
0.0
  0
ARC
  5
29C
330
37
100
AcDbEntity
  8
Sichtbare Kanten(TC_020513_DIN)
100
AcDbCircle
 10
151.5868684203676
 20
101.6990051448095
 30
0.0
 40
5.000000000000008
100
AcDbArc
 50
35.14968982754515
 51
69.1001619798739
  0
LINE
  5
29D
330
37
100
AcDbEntity
  8
Sichtbare Kanten(TC_020513_DIN)
100
AcDbLine
 10
153.3705452115948
 20
106.3700325590341
 30
0.0
 11
149.4023842513118
 21
107.8853130275571
 31
0.0
  0
LINE
  5
29E
330
37
100
AcDbEntity
  8
Sichtbare Kanten(TC_020513_DIN)
100
AcDbLine
 10
142.8042253377638
 20
79.19900514480949
 30
0.0
 11
163.6868684203676
 21
79.19900514480947
 31
0.0
  0
LINE
  5
29F
330
37
100
AcDbEntity
  8
Sichtbare Kanten(TC_020513_DIN)
100
AcDbLine
 10
163.6868684203676
 20
79.19900514480947
 30
0.0
 11
163.6868684203676
 21
81.19900514480947
 31
0.0
  0
LINE
  5
2A0
330
37
100
AcDbEntity
  8
Sichtbare Kanten(TC_020513_DIN)
100
AcDbLine
 10
163.6868684203676
 20
81.19900514480947
 30
0.0
 11
163.8868684203676
 21
81.19900514480947
 31
0.0
  0
LINE
  5
2A1
330
37
100
AcDbEntity
  8
Sichtbare Kanten(TC_020513_DIN)
100
AcDbLine
 10
139.1176853900521
 20
102.7837451456915
 30
0.0
 11
143.4186479604954
 21
99.37449946151168
 31
0.0
  0
ARC
  5
2A2
330
37
100
AcDbEntity
  8
Sichtbare Kanten(TC_020513_DIN)
100
AcDbCircle
 10
142.4868684203676
 20
98.1990051448095
 30
0.0
 40
1.499999999999962
100
AcDbArc
 50
0.0
 51
51.59717937770699
  0
LINE
  5
2A3
330
37
100
AcDbEntity
  8
Sichtbare Kanten(TC_020513_DIN)
100
AcDbLine
 10
143.9868684203676
 20
98.19900514480949
 30
0.0
 11
143.9868684203676
 21
90.1990051448095
 31
0.0
  0
ARC
  5
2A4
330
37
100
AcDbEntity
  8
Sichtbare Kanten(TC_020513_DIN)
100
AcDbCircle
 10
141.4868684203676
 20
90.1990051448095
 30
0.0
 40
2.499999999999991
100
AcDbArc
 50
270.0
 51
0.0
  0
LINE
  5
2A5
330
37
100
AcDbEntity
  8
Sichtbare Kanten(TC_020513_DIN)
100
AcDbLine
 10
141.4868684203676
 20
87.6990051448095
 30
0.0
 11
138.4868684203676
 21
87.6990051448095
 31
0.0
  0
LINE
  5
2A6
330
37
100
AcDbEntity
  8
Sichtbare Kanten(TC_020513_DIN)
100
AcDbLine
 10
138.4868684203676
 20
87.6990051448095
 30
0.0
 11
138.8765842210818
 21
81.0738365326673
 31
0.0
  0
CIRCLE
  5
2A7
330
37
100
AcDbEntity
  8
Sichtbare Kanten(TC_020513_DIN)
100
AcDbCircle
 10
151.5868684203676
 20
101.6990051448095
 30
0.0
 40
1.250000000000004
  0
ARC
  5
2A8
330
37
100
AcDbEntity
  8
Sichtbare Kanten(TC_020513_DIN)
100
AcDbCircle
 10
132.4868684203676
 20
89.69900514480949
 30
0.0
 40
5.500000000000001
100
AcDbArc
 50
298.5274353303899
 51
239.3788821713489
  0
ARC
  5
2A9
330
37
100
AcDbEntity
  8
Sichtbare Kanten(TC_020513_DIN)
100
AcDbCircle
 10
139.9868684203676
 20
90.77592822173258
 30
0.0
 40
11.82692307692308
100
AcDbArc
 50
188.1712335599497
 51
270.0
  0
ARC
  5
2AA
330
37
100
AcDbEntity
  8
Sichtbare Kanten(TC_020513_DIN)
100
AcDbCircle
 10
132.4868684203676
 20
89.69900514480949
 30
0.0
 40
4.25
100
AcDbArc
 50
318.9952631203325
 51
188.1712335599499
  0
ARC
  5
2AB
330
37
100
AcDbEntity
  8
Sichtbare Kanten(TC_020513_DIN)
100
AcDbCircle
 10
137.5807919554002
 20
85.27018554820807
 30
0.0
 40
2.499999999999991
100
AcDbArc
 50
138.9952631203325
 51
195.7552023948128
  0
ARC
  5
2AC
330
37
100
AcDbEntity
  8
Sichtbare Kanten(TC_020513_DIN)
100
AcDbCircle
 10
139.9868684203676
 20
85.94900514480949
 30
0.0
 40
4.999999999999995
100
AcDbArc
 50
195.7552023948124
 51
269.9999999999998
  0
ARC
  5
2AD
330
37
100
AcDbEntity
  8
Sichtbare Kanten(TC_020513_DIN)
100
AcDbCircle
 10
139.9868684203676
 20
94.94900514480949
 30
0.0
 40
14.00000000000001
100
AcDbArc
 50
270.0
 51
4.6895915085289
  0
ARC
  5
2AE
330
37
100
AcDbEntity
  8
Sichtbare Kanten(TC_020513_DIN)
100
AcDbCircle
 10
150.4517171033564
 20
95.8074584295881
 30
0.0
 40
3.500000000000007
100
AcDbArc
 50
4.689591508529095
 51
79.08962407571443
  0
ARC
  5
2AF
330
37
100
AcDbEntity
  8
Sichtbare Kanten(TC_020513_DIN)
100
AcDbCircle
 10
151.5873567039182
 20
101.6990051448095
 30
0.0
 40
2.499999999999998
100
AcDbArc
 50
170.4059317731396
 51
259.0896240757146
  0
ARC
  5
2B0
330
37
100
AcDbEntity
  8
Sichtbare Kanten(TC_020513_DIN)
100
AcDbCircle
 10
145.6712769208186
 20
102.6990051448095
 30
0.0
 40
3.5
100
AcDbArc
 50
350.4059317731395
 51
113.0449594472926
  0
ARC
  5
2B1
330
37
100
AcDbEntity
  8
Sichtbare Kanten(TC_020513_DIN)
100
AcDbCircle
 10
139.9868684203676
 20
94.94900514480949
 30
0.0
 40
16.0
100
AcDbArc
 50
270.0
 51
79.8064578997711
  0
CIRCLE
  5
2B2
330
37
100
AcDbEntity
  8
Sichtbare Kanten(TC_020513_DIN)
100
AcDbCircle
 10
132.4868684203676
 20
89.69900514480949
 30
0.0
 40
1.25
  0
CIRCLE
  5
2B3
330
37
100
AcDbEntity
  8
Sichtbare Kanten(TC_020513_DIN)
100
AcDbCircle
 10
139.9868684203676
 20
107.1990051448095
 30
0.0
 40
4.499999999999997
  0
CIRCLE
  5
2B4
330
37
100
AcDbEntity
  8
Sichtbare Kanten(TC_020513_DIN)
100
AcDbCircle
 10
139.9868684203676
 20
107.1990051448095
 30
0.0
 40
3.499999999999998
  0
CIRCLE
  5
2B5
330
37
100
AcDbEntity
  8
Sichtbare Kanten(TC_020513_DIN)
100
AcDbCircle
 10
90.48686842036762
 20
107.1990051448095
 30
0.0
 40
4.499999999999997
  0
CIRCLE
  5
2B6
330
37
100
AcDbEntity
  8
Sichtbare Kanten(TC_020513_DIN)
100
AcDbCircle
 10
90.48686842036762
 20
107.1990051448095
 30
0.0
 40
3.499999999999998
  0
LINE
  5
2B7
330
37
100
AcDbEntity
  8
Sichtbare Kanten(TC_020513_DIN)
100
AcDbLine
 10
68.48686842036762
 20
116.9490051448095
 30
0.0
 11
69.18686842036762
 21
117.6490051448095
 31
0.0
  0
LINE
  5
2B8
330
37
100
AcDbEntity
  8
Sichtbare Kanten(TC_020513_DIN)
100
AcDbLine
 10
69.18686842036762
 20
117.6490051448095
 30
0.0
 11
74.48686842036761
 21
117.6490051448095
 31
0.0
  0
LINE
  5
2B9
330
37
100
AcDbEntity
  8
Sichtbare Kanten(TC_020513_DIN)
100
AcDbLine
 10
155.9868684203676
 20
117.6490051448095
 30
0.0
 11
74.48686842036761
 21
117.6490051448095
 31
0.0
  0
LINE
  5
2BA
330
37
100
AcDbEntity
  8
Sichtbare Kanten(TC_020513_DIN)
100
AcDbLine
 10
161.9868684203676
 20
116.9490051448095
 30
0.0
 11
161.2868684203676
 21
117.6490051448095
 31
0.0
  0
LINE
  5
2BB
330
37
100
AcDbEntity
  8
Sichtbare Kanten(TC_020513_DIN)
100
AcDbLine
 10
155.9868684203676
 20
117.6490051448095
 30
0.0
 11
161.2868684203676
 21
117.6490051448095
 31
0.0
  0
LINE
  5
2BC
330
37
100
AcDbEntity
  8
Sichtbare Kanten(TC_020513_DIN)
100
AcDbLine
 10
74.48686842036761
 20
117.7490051448095
 30
0.0
 11
155.9868684203676
 21
117.7490051448095
 31
0.0
  0
LINE
  5
2BD
330
37
100
AcDbEntity
  8
Sichtbare Kanten(TC_020513_DIN)
100
AcDbLine
 10
68.48686842036762
 20
118.4490051448095
 30
0.0
 11
69.18686842036762
 21
117.7490051448095
 31
0.0
  0
LINE
  5
2BE
330
37
100
AcDbEntity
  8
Sichtbare Kanten(TC_020513_DIN)
100
AcDbLine
 10
74.48686842036761
 20
117.7490051448095
 30
0.0
 11
69.18686842036762
 21
117.7490051448095
 31
0.0
  0
LINE
  5
2BF
330
37
100
AcDbEntity
  8
Sichtbare Kanten(TC_020513_DIN)
100
AcDbLine
 10
161.2868684203676
 20
117.7490051448095
 30
0.0
 11
155.9868684203676
 21
117.7490051448095
 31
0.0
  0
LINE
  5
2C0
330
37
100
AcDbEntity
  8
Sichtbare Kanten(TC_020513_DIN)
100
AcDbLine
 10
161.2868684203676
 20
117.7490051448095
 30
0.0
 11
161.9868684203676
 21
118.4490051448095
 31
0.0
  0
LINE
  5
2C1
330
37
100
AcDbEntity
  8
Sichtbare Kanten(TC_020513_DIN)
100
AcDbLine
 10
68.48686842036762
 20
114.4490051448095
 30
0.0
 11
69.18686842036762
 21
115.1490051448095
 31
0.0
  0
LINE
  5
2C2
330
37
100
AcDbEntity
  8
Sichtbare Kanten(TC_020513_DIN)
100
AcDbLine
 10
69.18686842036762
 20
115.1490051448095
 30
0.0
 11
74.48686842036761
 21
115.1490051448095
 31
0.0
  0
LINE
  5
2C3
330
37
100
AcDbEntity
  8
Sichtbare Kanten(TC_020513_DIN)
100
AcDbLine
 10
155.9868684203676
 20
115.1490051448095
 30
0.0
 11
74.48686842036761
 21
115.1490051448095
 31
0.0
  0
LINE
  5
2C4
330
37
100
AcDbEntity
  8
Sichtbare Kanten(TC_020513_DIN)
100
AcDbLine
 10
161.9868684203676
 20
114.4490051448095
 30
0.0
 11
161.2868684203676
 21
115.1490051448095
 31
0.0
  0
LINE
  5
2C5
330
37
100
AcDbEntity
  8
Sichtbare Kanten(TC_020513_DIN)
100
AcDbLine
 10
155.9868684203676
 20
115.1490051448095
 30
0.0
 11
161.2868684203676
 21
115.1490051448095
 31
0.0
  0
LINE
  5
2C6
330
37
100
AcDbEntity
  8
Sichtbare Kanten(TC_020513_DIN)
100
AcDbLine
 10
74.48686842036761
 20
115.2490051448095
 30
0.0
 11
155.9868684203676
 21
115.2490051448095
 31
0.0
  0
LINE
  5
2C7
330
37
100
AcDbEntity
  8
Sichtbare Kanten(TC_020513_DIN)
100
AcDbLine
 10
68.48686842036762
 20
115.9490051448095
 30
0.0
 11
69.18686842036762
 21
115.2490051448095
 31
0.0
  0
LINE
  5
2C8
330
37
100
AcDbEntity
  8
Sichtbare Kanten(TC_020513_DIN)
100
AcDbLine
 10
74.48686842036761
 20
115.2490051448095
 30
0.0
 11
69.18686842036762
 21
115.2490051448095
 31
0.0
  0
LINE
  5
2C9
330
37
100
AcDbEntity
  8
Sichtbare Kanten(TC_020513_DIN)
100
AcDbLine
 10
161.2868684203676
 20
115.2490051448095
 30
0.0
 11
155.9868684203676
 21
115.2490051448095
 31
0.0
  0
LINE
  5
2CA
330
37
100
AcDbEntity
  8
Sichtbare Kanten(TC_020513_DIN)
100
AcDbLine
 10
161.2868684203676
 20
115.2490051448095
 30
0.0
 11
161.9868684203676
 21
115.9490051448095
 31
0.0
  0
LINE
  5
2CB
330
37
100
AcDbEntity
  8
Sichtbare Kanten(TC_020513_DIN)
100
AcDbLine
 10
161.2868684203676
 20
117.6490051448095
 30
0.0
 11
161.2868684203676
 21
117.7490051448095
 31
0.0
  0
LINE
  5
2CC
330
37
100
AcDbEntity
  8
Sichtbare Kanten(TC_020513_DIN)
100
AcDbLine
 10
69.18686842036762
 20
117.6490051448095
 30
0.0
 11
69.18686842036762
 21
117.7490051448095
 31
0.0
  0
LINE
  5
2CD
330
37
100
AcDbEntity
  8
Sichtbare Kanten(TC_020513_DIN)
100
AcDbLine
 10
161.2868684203676
 20
115.1490051448095
 30
0.0
 11
161.2868684203676
 21
115.2490051448095
 31
0.0
  0
LINE
  5
2CE
330
37
100
AcDbEntity
  8
Sichtbare Kanten(TC_020513_DIN)
100
AcDbLine
 10
69.18686842036762
 20
115.1490051448095
 30
0.0
 11
69.18686842036762
 21
115.2490051448095
 31
0.0
  0
LINE
  5
2CF
330
37
100
AcDbEntity
  8
Sichtbare Kanten(TC_020513_DIN)
100
AcDbLine
 10
68.48686842036761
 20
111.9490051448095
 30
0.0
 11
69.18686842036762
 21
112.6490051448095
 31
0.0
  0
LINE
  5
2D0
330
37
100
AcDbEntity
  8
Sichtbare Kanten(TC_020513_DIN)
100
AcDbLine
 10
69.18686842036762
 20
112.6490051448095
 30
0.0
 11
74.48686842036761
 21
112.6490051448095
 31
0.0
  0
LINE
  5
2D1
330
37
100
AcDbEntity
  8
Sichtbare Kanten(TC_020513_DIN)
100
AcDbLine
 10
155.9868684203676
 20
112.6490051448095
 30
0.0
 11
74.48686842036761
 21
112.6490051448095
 31
0.0
  0
LINE
  5
2D2
330
37
100
AcDbEntity
  8
Sichtbare Kanten(TC_020513_DIN)
100
AcDbLine
 10
161.9868684203676
 20
111.9490051448095
 30
0.0
 11
161.2868684203676
 21
112.6490051448095
 31
0.0
  0
LINE
  5
2D3
330
37
100
AcDbEntity
  8
Sichtbare Kanten(TC_020513_DIN)
100
AcDbLine
 10
155.9868684203676
 20
112.6490051448095
 30
0.0
 11
161.2868684203676
 21
112.6490051448095
 31
0.0
  0
LINE
  5
2D4
330
37
100
AcDbEntity
  8
Sichtbare Kanten(TC_020513_DIN)
100
AcDbLine
 10
74.48686842036761
 20
112.7490051448095
 30
0.0
 11
155.9868684203676
 21
112.7490051448095
 31
0.0
  0
LINE
  5
2D5
330
37
100
AcDbEntity
  8
Sichtbare Kanten(TC_020513_DIN)
100
AcDbLine
 10
68.48686842036762
 20
113.4490051448095
 30
0.0
 11
69.18686842036762
 21
112.7490051448095
 31
0.0
  0
LINE
  5
2D6
330
37
100
AcDbEntity
  8
Sichtbare Kanten(TC_020513_DIN)
100
AcDbLine
 10
74.48686842036761
 20
112.7490051448095
 30
0.0
 11
69.18686842036762
 21
112.7490051448095
 31
0.0
  0
LINE
  5
2D7
330
37
100
AcDbEntity
  8
Sichtbare Kanten(TC_020513_DIN)
100
AcDbLine
 10
161.2868684203676
 20
112.7490051448095
 30
0.0
 11
155.9868684203676
 21
112.7490051448095
 31
0.0
  0
LINE
  5
2D8
330
37
100
AcDbEntity
  8
Sichtbare Kanten(TC_020513_DIN)
100
AcDbLine
 10
161.2868684203676
 20
112.7490051448095
 30
0.0
 11
161.9868684203676
 21
113.4490051448095
 31
0.0
  0
LINE
  5
2D9
330
37
100
AcDbEntity
  8
Sichtbare Kanten(TC_020513_DIN)
100
AcDbLine
 10
161.2868684203676
 20
112.6490051448095
 30
0.0
 11
161.2868684203676
 21
112.7490051448095
 31
0.0
  0
LINE
  5
2DA
330
37
100
AcDbEntity
  8
Sichtbare Kanten(TC_020513_DIN)
100
AcDbLine
 10
69.18686842036762
 20
112.6490051448095
 30
0.0
 11
69.18686842036762
 21
112.7490051448095
 31
0.0
  0
POLYLINE
  5
2DB
330
37
100
AcDbEntity
  8
Sichtbare Kanten(TC_020513_DIN)
100
AcDb2dPolyline
 66
     1
 10
0.0
 20
0.0
 30
0.0
 70
   128
  0
VERTEX
  5
2DC
330
2DB
100
AcDbEntity
  8
Sichtbare Kanten(TC_020513_DIN)
100
AcDbVertex
100
AcDb2dVertex
 10
256.3985207552136
 20
80.19900466797233
 30
0.0
  0
VERTEX
  5
2DD
330
2DB
100
AcDbEntity
  8
Sichtbare Kanten(TC_020513_DIN)
100
AcDbVertex
100
AcDb2dVertex
 10
256.4008417600811
 20
80.14781381485343
 30
0.0
  0
VERTEX
  5
2DF
330
2DB
100
AcDbEntity
  8
Sichtbare Kanten(TC_020513_DIN)
100
AcDbVertex
100
AcDb2dVertex
 10
256.4010324949444
 20
80.09684111473442
 30
0.0
  0
VERTEX
  5
2E0
330
2DB
100
AcDbEntity
  8
Sichtbare Kanten(TC_020513_DIN)
100
AcDbVertex
100
AcDb2dVertex
 10
256.3991024965466
 20
80.04619027969718
 30
0.0
  0
VERTEX
  5
2E1
330
2DB
100
AcDbEntity
  8
Sichtbare Kanten(TC_020513_DIN)
100
AcDbVertex
100
AcDb2dVertex
 10
256.3950589174451
 20
79.99595786926628
 30
0.0
  0
VERTEX
  5
2E2
330
2DB
100
AcDbEntity
  8
Sichtbare Kanten(TC_020513_DIN)
100
AcDbVertex
100
AcDb2dVertex
 10
256.3889089101971
 20
79.9462464034307
 30
0.0
  0
VERTEX
  5
2E3
330
2DB
100
AcDbEntity
  8
Sichtbare Kanten(TC_020513_DIN)
100
AcDbVertex
100
AcDb2dVertex
 10
256.3806632036389
 20
79.8971536338079
 30
0.0
  0
VERTEX
  5
2E4
330
2DB
100
AcDbEntity
  8
Sichtbare Kanten(TC_020513_DIN)
100
AcDbVertex
100
AcDb2dVertex
 10
256.3703277582349
 20
79.84878088829399
 30
0.0
  0
VERTEX
  5
2E5
330
2DB
100
AcDbEntity
  8
Sichtbare Kanten(TC_020513_DIN)
100
AcDbVertex
100
AcDb2dVertex
 10
256.3579109186353
 20
79.80122711059928
 30
0.0
  0
VERTEX
  5
2E6
330
2DB
100
AcDbEntity
  8
Sichtbare Kanten(TC_020513_DIN)
100
AcDbVertex
100
AcDb2dVertex
 10
256.343460368556
 20
79.75471045372367
 30
0.0
  0
VERTEX
  5
2E7
330
2DB
100
AcDbEntity
  8
Sichtbare Kanten(TC_020513_DIN)
100
AcDbVertex
100
AcDb2dVertex
 10
256.3270392889203
 20
79.70942522880912
 30
0.0
  0
VERTEX
  5
2E8
330
2DB
100
AcDbEntity
  8
Sichtbare Kanten(TC_020513_DIN)
100
AcDbVertex
100
AcDb2dVertex
 10
256.3086834425153
 20
79.66545488235832
 30
0.0
  0
VERTEX
  5
2E9
330
2DB
100
AcDbEntity
  8
Sichtbare Kanten(TC_020513_DIN)
100
AcDbVertex
100
AcDb2dVertex
 10
256.2884297842206
 20
79.62288762924552
 30
0.0
  0
VERTEX
  5
2EA
330
2DB
100
AcDbEntity
  8
Sichtbare Kanten(TC_020513_DIN)
100
AcDbVertex
100
AcDb2dVertex
 10
256.266316461009
 20
79.58180810806632
 30
0.0
  0
VERTEX
  5
2EB
330
2DB
100
AcDbEntity
  8
Sichtbare Kanten(TC_020513_DIN)
100
AcDbVertex
100
AcDb2dVertex
 10
256.2423780435743
 20
79.54229738113761
 30
0.0
  0
VERTEX
  5
2EC
330
2DB
100
AcDbEntity
  8
Sichtbare Kanten(TC_020513_DIN)
100
AcDbVertex
100
AcDb2dVertex
 10
256.2166538709821
 20
79.50444604751945
 30
0.0
  0
VERTEX
  5
2ED
330
2DB
100
AcDbEntity
  8
Sichtbare Kanten(TC_020513_DIN)
100
AcDbVertex
100
AcDb2dVertex
 10
256.1891916269483
 20
79.46835185882926
 30
0.0
  0
VERTEX
  5
2EE
330
2DB
100
AcDbEntity
  8
Sichtbare Kanten(TC_020513_DIN)
100
AcDbVertex
100
AcDb2dVertex
 10
256.1601522440137
 20
79.43423416015983
 30
0.0
  0
VERTEX
  5
2EF
330
2DB
100
AcDbEntity
  8
Sichtbare Kanten(TC_020513_DIN)
100
AcDbVertex
100
AcDb2dVertex
 10
256.1296191686811
 20
79.40217639801383
 30
0.0
  0
VERTEX
  5
2F0
330
2DB
100
AcDbEntity
  8
Sichtbare Kanten(TC_020513_DIN)
100
AcDbVertex
100
AcDb2dVertex
 10
256.0976579660596
 20
79.37224056122184
 30
0.0
  0
VERTEX
  5
2F1
330
2DB
100
AcDbEntity
  8
Sichtbare Kanten(TC_020513_DIN)
100
AcDbVertex
100
AcDb2dVertex
 10
256.0643318170729
 20
79.34448148605705
 30
0.0
  0
VERTEX
  5
2F2
330
2DB
100
AcDbEntity
  8
Sichtbare Kanten(TC_020513_DIN)
100
AcDbVertex
100
AcDb2dVertex
 10
256.0297039026441
 20
79.31895400879264
 30
0.0
  0
VERTEX
  5
2F3
330
2DB
100
AcDbEntity
  8
Sichtbare Kanten(TC_020513_DIN)
100
AcDbVertex
100
AcDb2dVertex
 10
255.9938385957899
 20
79.2957201182592
 30
0.0
  0
VERTEX
  5
2F4
330
2DB
100
AcDbEntity
  8
Sichtbare Kanten(TC_020513_DIN)
100
AcDbVertex
100
AcDb2dVertex
 10
255.9567978853407
 20
79.27482988235832
 30
0.0
  0
VERTEX
  5
2F5
330
2DB
100
AcDbEntity
  8
Sichtbare Kanten(TC_020513_DIN)
100
AcDbVertex
100
AcDb2dVertex
 10
255.9187307829084
 20
79.25638343689323
 30
0.0
  0
SEQEND
  5
2DE
330
2DB
100
AcDbEntity
  8
Sichtbare Kanten(TC_020513_DIN)
  0
LINE
  5
2F6
330
37
100
AcDbEntity
  8
Sichtbare Kanten(TC_020513_DIN)
100
AcDbLine
 10
255.8155683081453
 20
79.1990051448095
 30
0.0
 11
258.0352302706122
 21
79.1990051448095
 31
0.0
  0
POLYLINE
  5
2F7
330
37
100
AcDbEntity
  8
Sichtbare Kanten(TC_020513_DIN)
100
AcDb2dPolyline
 66
     1
 10
0.0
 20
0.0
 30
0.0
 70
   128
  0
VERTEX
  5
2F8
330
2F7
100
AcDbEntity
  8
Sichtbare Kanten(TC_020513_DIN)
100
AcDbVertex
100
AcDb2dVertex
 10
221.9418218607129
 20
80.19900466797233
 30
0.0
  0
VERTEX
  5
2F9
330
2F7
100
AcDbEntity
  8
Sichtbare Kanten(TC_020513_DIN)
100
AcDbVertex
100
AcDb2dVertex
 10
221.9395008558453
 20
80.14781381485343
 30
0.0
  0
VERTEX
  5
2FB
330
2F7
100
AcDbEntity
  8
Sichtbare Kanten(TC_020513_DIN)
100
AcDbVertex
100
AcDb2dVertex
 10
221.9393101209821
 20
80.09684111473442
 30
0.0
  0
VERTEX
  5
2FC
330
2F7
100
AcDbEntity
  8
Sichtbare Kanten(TC_020513_DIN)
100
AcDbVertex
100
AcDb2dVertex
 10
221.9412401193799
 20
80.04619027969718
 30
0.0
  0
VERTEX
  5
2FD
330
2F7
100
AcDbEntity
  8
Sichtbare Kanten(TC_020513_DIN)
100
AcDbVertex
100
AcDb2dVertex
 10
221.9452836984814
 20
79.99595786926628
 30
0.0
  0
VERTEX
  5
2FE
330
2F7
100
AcDbEntity
  8
Sichtbare Kanten(TC_020513_DIN)
100
AcDbVertex
100
AcDb2dVertex
 10
221.9514337057294
 20
79.9462464034307
 30
0.0
  0
VERTEX
  5
2FF
330
2F7
100
AcDbEntity
  8
Sichtbare Kanten(TC_020513_DIN)
100
AcDbVertex
100
AcDb2dVertex
 10
221.9596794122876
 20
79.8971536338079
 30
0.0
  0
VERTEX
  5
300
330
2F7
100
AcDbEntity
  8
Sichtbare Kanten(TC_020513_DIN)
100
AcDbVertex
100
AcDb2dVertex
 10
221.9700148576916
 20
79.84878088829399
 30
0.0
  0
VERTEX
  5
301
330
2F7
100
AcDbEntity
  8
Sichtbare Kanten(TC_020513_DIN)
100
AcDbVertex
100
AcDb2dVertex
 10
221.9824316972913
 20
79.80122711059928
 30
0.0
  0
VERTEX
  5
302
330
2F7
100
AcDbEntity
  8
Sichtbare Kanten(TC_020513_DIN)
100
AcDbVertex
100
AcDb2dVertex
 10
221.9968822473706
 20
79.75471045372367
 30
0.0
  0
VERTEX
  5
303
330
2F7
100
AcDbEntity
  8
Sichtbare Kanten(TC_020513_DIN)
100
AcDbVertex
100
AcDb2dVertex
 10
222.0133033270062
 20
79.70942522880912
 30
0.0
  0
VERTEX
  5
304
330
2F7
100
AcDbEntity
  8
Sichtbare Kanten(TC_020513_DIN)
100
AcDbVertex
100
AcDb2dVertex
 10
222.0316591734113
 20
79.66545488235832
 30
0.0
  0
VERTEX
  5
305
330
2F7
100
AcDbEntity
  8
Sichtbare Kanten(TC_020513_DIN)
100
AcDbVertex
100
AcDb2dVertex
 10
222.051912831706
 20
79.62288762924552
 30
0.0
  0
VERTEX
  5
306
330
2F7
100
AcDbEntity
  8
Sichtbare Kanten(TC_020513_DIN)
100
AcDbVertex
100
AcDb2dVertex
 10
222.0740261549177
 20
79.58180810806632
 30
0.0
  0
VERTEX
  5
307
330
2F7
100
AcDbEntity
  8
Sichtbare Kanten(TC_020513_DIN)
100
AcDbVertex
100
AcDb2dVertex
 10
222.0979645723523
 20
79.54229738113761
 30
0.0
  0
VERTEX
  5
308
330
2F7
100
AcDbEntity
  8
Sichtbare Kanten(TC_020513_DIN)
100
AcDbVertex
100
AcDb2dVertex
 10
222.1236887449445
 20
79.50444604751945
 30
0.0
  0
VERTEX
  5
309
330
2F7
100
AcDbEntity
  8
Sichtbare Kanten(TC_020513_DIN)
100
AcDbVertex
100
AcDb2dVertex
 10
222.1511509889783
 20
79.46835185882926
 30
0.0
  0
VERTEX
  5
30A
330
2F7
100
AcDbEntity
  8
Sichtbare Kanten(TC_020513_DIN)
100
AcDbVertex
100
AcDb2dVertex
 10
222.1801903719129
 20
79.43423416015983
 30
0.0
  0
VERTEX
  5
30B
330
2F7
100
AcDbEntity
  8
Sichtbare Kanten(TC_020513_DIN)
100
AcDbVertex
100
AcDb2dVertex
 10
222.2107234472456
 20
79.40217639801383
 30
0.0
  0
VERTEX
  5
30C
330
2F7
100
AcDbEntity
  8
Sichtbare Kanten(TC_020513_DIN)
100
AcDbVertex
100
AcDb2dVertex
 10
222.242684649867
 20
79.37224056122184
 30
0.0
  0
VERTEX
  5
30D
330
2F7
100
AcDbEntity
  8
Sichtbare Kanten(TC_020513_DIN)
100
AcDbVertex
100
AcDb2dVertex
 10
222.2760107988539
 20
79.34448148605705
 30
0.0
  0
VERTEX
  5
30E
330
2F7
100
AcDbEntity
  8
Sichtbare Kanten(TC_020513_DIN)
100
AcDbVertex
100
AcDb2dVertex
 10
222.3106387132826
 20
79.31895400879264
 30
0.0
  0
VERTEX
  5
30F
330
2F7
100
AcDbEntity
  8
Sichtbare Kanten(TC_020513_DIN)
100
AcDbVertex
100
AcDb2dVertex
 10
222.3465040201368
 20
79.2957201182592
 30
0.0
  0
VERTEX
  5
310
330
2F7
100
AcDbEntity
  8
Sichtbare Kanten(TC_020513_DIN)
100
AcDbVertex
100
AcDb2dVertex
 10
222.3835447305861
 20
79.27482988235832
 30
0.0
  0
VERTEX
  5
311
330
2F7
100
AcDbEntity
  8
Sichtbare Kanten(TC_020513_DIN)
100
AcDbVertex
100
AcDb2dVertex
 10
222.4216118330183
 20
79.25638343689323
 30
0.0
  0
SEQEND
  5
2FA
330
2F7
100
AcDbEntity
  8
Sichtbare Kanten(TC_020513_DIN)
  0
LINE
  5
312
330
37
100
AcDbEntity
  8
Sichtbare Kanten(TC_020513_DIN)
100
AcDbLine
 10
220.3051123453154
 20
79.1990051448095
 30
0.0
 11
222.5247743077817
 21
79.1990051448095
 31
0.0
  0
LINE
  5
313
330
37
100
AcDbEntity
  8
Sichtbare Kanten(TC_020513_DIN)
100
AcDbLine
 10
267.6701713079635
 20
80.1990051448095
 30
0.0
 11
267.6701713079638
 21
79.1990051448095
 31
0.0
  0
LINE
  5
314
330
37
100
AcDbEntity
  8
Sichtbare Kanten(TC_020513_DIN)
100
AcDbLine
 10
258.0352302706122
 20
79.1990051448095
 30
0.0
 11
267.6701713079638
 21
79.1990051448095
 31
0.0
  0
LINE
  5
315
330
37
100
AcDbEntity
  8
Sichtbare Kanten(TC_020513_DIN)
100
AcDbLine
 10
210.6701713079638
 20
79.1990051448095
 30
0.0
 11
210.6701713079635
 21
80.19900514480951
 31
0.0
  0
LINE
  5
316
330
37
100
AcDbEntity
  8
Sichtbare Kanten(TC_020513_DIN)
100
AcDbLine
 10
210.6701713079638
 20
79.1990051448095
 30
0.0
 11
220.3051123453154
 21
79.1990051448095
 31
0.0
  0
LINE
  5
317
330
37
100
AcDbEntity
  8
Sichtbare Kanten(TC_020513_DIN)
100
AcDbLine
 10
251.0811183894545
 20
76.99190520189694
 30
0.0
 11
227.2592242264678
 21
76.99190520189694
 31
0.0
  0
POLYLINE
  5
318
330
37
100
AcDbEntity
  8
Sichtbare Kanten(TC_020513_DIN)
100
AcDb2dPolyline
 66
     1
 10
0.0
 20
0.0
 30
0.0
 70
   128
  0
VERTEX
  5
319
330
318
100
AcDbEntity
  8
Sichtbare Kanten(TC_020513_DIN)
100
AcDbVertex
100
AcDb2dVertex
 10
253.5563519472285
 20
77.54346515533805
 30
0.0
  0
VERTEX
  5
31A
330
318
100
AcDbEntity
  8
Sichtbare Kanten(TC_020513_DIN)
100
AcDbVertex
100
AcDb2dVertex
 10
253.3148684972925
 20
77.39483739731193
 30
0.0
  0
VERTEX
  5
31C
330
318
100
AcDbEntity
  8
Sichtbare Kanten(TC_020513_DIN)
100
AcDbVertex
100
AcDb2dVertex
 10
253.0557706827325
 20
77.28135015365959
 30
0.0
  0
VERTEX
  5
31D
330
318
100
AcDbEntity
  8
Sichtbare Kanten(TC_020513_DIN)
100
AcDbVertex
100
AcDb2dVertex
 10
252.7762368196648
 20
77.19111348984123
 30
0.0
  0
VERTEX
  5
31E
330
318
100
AcDbEntity
  8
Sichtbare Kanten(TC_020513_DIN)
100
AcDbVertex
100
AcDb2dVertex
 10
252.4735477441948
 20
77.11929466125846
 30
0.0
  0
VERTEX
  5
31F
330
318
100
AcDbEntity
  8
Sichtbare Kanten(TC_020513_DIN)
100
AcDbVertex
100
AcDb2dVertex
 10
252.1496990198295
 20
77.06401016113639
 30
0.0
  0
VERTEX
  5
320
330
318
100
AcDbEntity
  8
Sichtbare Kanten(TC_020513_DIN)
100
AcDbVertex
100
AcDb2dVertex
 10
251.8046942228477
 20
77.02413465378166
 30
0.0
  0
VERTEX
  5
321
330
318
100
AcDbEntity
  8
Sichtbare Kanten(TC_020513_DIN)
100
AcDbVertex
100
AcDb2dVertex
 10
251.4453819269339
 20
76.99996139404655
 30
0.0
  0
VERTEX
  5
322
330
318
100
AcDbEntity
  8
Sichtbare Kanten(TC_020513_DIN)
100
AcDbVertex
100
AcDb2dVertex
 10
251.0811188692252
 20
76.99190523025871
 30
0.0
  0
SEQEND
  5
31B
330
318
100
AcDbEntity
  8
Sichtbare Kanten(TC_020513_DIN)
  0
POLYLINE
  5
323
330
37
100
AcDbEntity
  8
Sichtbare Kanten(TC_020513_DIN)
100
AcDb2dPolyline
 66
     1
 10
0.0
 20
0.0
 30
0.0
 70
   128
  0
VERTEX
  5
324
330
323
100
AcDbEntity
  8
Sichtbare Kanten(TC_020513_DIN)
100
AcDbVertex
100
AcDb2dVertex
 10
227.2592237466971
 20
76.99190523025871
 30
0.0
  0
VERTEX
  5
325
330
323
100
AcDbEntity
  8
Sichtbare Kanten(TC_020513_DIN)
100
AcDbVertex
100
AcDb2dVertex
 10
226.8939652914206
 20
77.00000430939079
 30
0.0
  0
VERTEX
  5
327
330
323
100
AcDbEntity
  8
Sichtbare Kanten(TC_020513_DIN)
100
AcDbVertex
100
AcDb2dVertex
 10
226.5353062624137
 20
77.02406312820793
 30
0.0
  0
VERTEX
  5
328
330
323
100
AcDbEntity
  8
Sichtbare Kanten(TC_020513_DIN)
100
AcDbVertex
100
AcDb2dVertex
 10
226.1917987341087
 20
77.06384326813102
 30
0.0
  0
VERTEX
  5
329
330
323
100
AcDbEntity
  8
Sichtbare Kanten(TC_020513_DIN)
100
AcDbVertex
100
AcDb2dVertex
 10
225.8664300913017
 20
77.11948301193595
 30
0.0
  0
VERTEX
  5
32A
330
323
100
AcDbEntity
  8
Sichtbare Kanten(TC_020513_DIN)
100
AcDbVertex
100
AcDb2dVertex
 10
225.5644503111046
 20
77.19101812240959
 30
0.0
  0
VERTEX
  5
32B
330
323
100
AcDbEntity
  8
Sichtbare Kanten(TC_020513_DIN)
100
AcDbVertex
100
AcDb2dVertex
 10
225.2850213522119
 20
77.28074695465446
 30
0.0
  0
VERTEX
  5
32C
330
323
100
AcDbEntity
  8
Sichtbare Kanten(TC_020513_DIN)
100
AcDbVertex
100
AcDb2dVertex
 10
225.0256934637231
 20
77.39509488937736
 30
0.0
  0
VERTEX
  5
32D
330
323
100
AcDbEntity
  8
Sichtbare Kanten(TC_020513_DIN)
100
AcDbVertex
100
AcDb2dVertex
 10
224.7839906686945
 20
77.54346515533805
 30
0.0
  0
SEQEND
  5
326
330
323
100
AcDbEntity
  8
Sichtbare Kanten(TC_020513_DIN)
  0
LINE
  5
32E
330
37
100
AcDbEntity
  8
Sichtbare Kanten(TC_020513_DIN)
100
AcDbLine
 10
255.8325825375186
 20
79.21147306598706
 30
0.0
 11
253.5563515363248
 21
77.54346518378716
 31
0.0
  0
LINE
  5
32F
330
37
100
AcDbEntity
  8
Sichtbare Kanten(TC_020513_DIN)
100
AcDbLine
 10
224.7839910795982
 20
77.54346518378716
 30
0.0
 11
222.5077600784078
 21
79.21147306598706
 31
0.0
  0
POLYLINE
  5
330
330
37
100
AcDbEntity
  8
Sichtbare Kanten(TC_020513_DIN)
100
AcDb2dPolyline
 66
     1
 10
0.0
 20
0.0
 30
0.0
 70
   128
  0
VERTEX
  5
331
330
330
100
AcDbEntity
  8
Sichtbare Kanten(TC_020513_DIN)
100
AcDbVertex
100
AcDb2dVertex
 10
255.9187307829084
 20
79.25638343689323
 30
0.0
  0
VERTEX
  5
332
330
330
100
AcDbEntity
  8
Sichtbare Kanten(TC_020513_DIN)
100
AcDbVertex
100
AcDb2dVertex
 10
255.8547392362775
 20
79.22456886169792
 30
0.0
  0
VERTEX
  5
334
330
330
100
AcDbEntity
  8
Sichtbare Kanten(TC_020513_DIN)
100
AcDbVertex
100
AcDb2dVertex
 10
255.8324244493665
 20
79.2113580882299
 30
0.0
  0
SEQEND
  5
333
330
330
100
AcDbEntity
  8
Sichtbare Kanten(TC_020513_DIN)
  0
POLYLINE
  5
335
330
37
100
AcDbEntity
  8
Sichtbare Kanten(TC_020513_DIN)
100
AcDb2dPolyline
 66
     1
 10
0.0
 20
0.0
 30
0.0
 70
   128
  0
VERTEX
  5
336
330
335
100
AcDbEntity
  8
Sichtbare Kanten(TC_020513_DIN)
100
AcDbVertex
100
AcDb2dVertex
 10
222.50791816656
 20
79.2113580882299
 30
0.0
  0
VERTEX
  5
337
330
335
100
AcDbEntity
  8
Sichtbare Kanten(TC_020513_DIN)
100
AcDbVertex
100
AcDb2dVertex
 10
222.4857559675397
 20
79.22469999191642
 30
0.0
  0
VERTEX
  5
339
330
335
100
AcDbEntity
  8
Sichtbare Kanten(TC_020513_DIN)
100
AcDbVertex
100
AcDb2dVertex
 10
222.4216118330183
 20
79.25638343689323
 30
0.0
  0
SEQEND
  5
338
330
335
100
AcDbEntity
  8
Sichtbare Kanten(TC_020513_DIN)
  0
LINE
  5
33A
330
37
100
AcDbEntity
  8
Sichtbare Kanten(TC_020513_DIN)
100
AcDbLine
 10
210.6701713079635
 20
80.1990051448095
 30
0.0
 11
210.6701713079635
 21
93.1990051448095
 31
0.0
  0
ELLIPSE
  5
33B
330
37
100
AcDbEntity
  8
Sichtbare Kanten(TC_020513_DIN)
100
AcDbEllipse
 10
250.7575441021914
 20
81.4269650013459
 30
0.0
 11
3.017399595575309
 21
-0.0000000000000178
 31
0.0
210
0.0
220
0.0
230
1.0
 40
0.2740479148547563
 41
4.712388980388446
 42
5.925311933032215
  0
LINE
  5
33C
330
37
100
AcDbEntity
  8
Sichtbare Kanten(TC_020513_DIN)
100
AcDbLine
 10
250.7575441021905
 20
80.60005293389492
 30
0.0
 11
227.5827985137307
 21
80.60005293389492
 31
0.0
  0
LINE
  5
33D
330
37
100
AcDbEntity
  8
Sichtbare Kanten(TC_020513_DIN)
100
AcDbLine
 10
253.5837729134596
 20
81.13731164931563
 30
0.0
 11
256.1032788038198
 21
82.98358985313845
 31
0.0
  0
LINE
  5
33E
330
37
100
AcDbEntity
  8
Sichtbare Kanten(TC_020513_DIN)
100
AcDbLine
 10
222.2370638121063
 20
82.98358985313845
 30
0.0
 11
224.7565697024628
 21
81.13731164931563
 31
0.0
  0
ELLIPSE
  5
33F
330
37
100
AcDbEntity
  8
Sichtbare Kanten(TC_020513_DIN)
100
AcDbEllipse
 10
227.5827985137316
 20
81.4269650013459
 30
0.0
 11
-3.017399595575309
 21
-0.0000000000000093
 31
0.0
210
0.0
220
0.0
230
1.0
 40
0.2740479148547563
 41
0.3578733741617102
 42
1.570796326798262
  0
ELLIPSE
  5
340
330
37
100
AcDbEntity
  8
Sichtbare Kanten(TC_020513_DIN)
100
AcDbEllipse
 10
222.4527800036151
 20
84.90611324501509
 30
0.0
 11
0.0000000000000003
 21
-2.0
 31
0.0
210
0.0
220
0.0
230
1.0
 40
0.3913043478257904
 41
5.910197585379536
 42
6.003932626860486
  0
ELLIPSE
  5
341
330
37
100
AcDbEntity
  8
Sichtbare Kanten(TC_020513_DIN)
100
AcDbEllipse
 10
255.8875626123107
 20
84.90611324501509
 30
0.0
 11
0.0000000000000003
 21
2.0
 31
0.0
210
0.0
220
0.0
230
1.0
 40
0.3913043478263837
 41
3.420845333908882
 42
3.514580375389831
  0
LINE
  5
342
330
37
100
AcDbEntity
  8
Sichtbare Kanten(TC_020513_DIN)
100
AcDbLine
 10
267.6701713079635
 20
93.1990051448095
 30
0.0
 11
267.6701713079635
 21
80.1990051448095
 31
0.0
  0
LINE
  5
343
330
37
100
AcDbEntity
  8
Sichtbare Kanten(TC_020513_DIN)
100
AcDbLine
 10
267.6701713079635
 20
93.1990051448095
 30
0.0
 11
210.6701713079635
 21
93.1990051448095
 31
0.0
  0
LINE
  5
344
330
37
100
AcDbEntity
  8
Sichtbare Kanten(TC_020513_DIN)
100
AcDbLine
 10
220.6701713079688
 20
149.6990051448094
 30
0.0
 11
223.6701713079679
 21
149.6990051448094
 31
0.0
  0
LINE
  5
345
330
37
100
AcDbEntity
  8
Sichtbare Kanten(TC_020513_DIN)
100
AcDbLine
 10
254.6701713079679
 20
149.6990051448094
 30
0.0
 11
223.6701713079679
 21
149.6990051448094
 31
0.0
  0
LINE
  5
346
330
37
100
AcDbEntity
  8
Sichtbare Kanten(TC_020513_DIN)
100
AcDbLine
 10
254.6701713079679
 20
149.6990051448094
 30
0.0
 11
257.6701713079688
 21
149.6990051448094
 31
0.0
  0
ARC
  5
347
330
37
100
AcDbEntity
  8
Sichtbare Kanten(TC_020513_DIN)
100
AcDbCircle
 10
257.6701713079688
 20
146.6990051448095
 30
0.0
 40
2.999999999999998
100
AcDbArc
 50
0.0
 51
90.0
  0
ARC
  5
348
330
37
100
AcDbEntity
  8
Sichtbare Kanten(TC_020513_DIN)
100
AcDbCircle
 10
220.6701713079688
 20
146.6990051448095
 30
0.0
 40
2.999999999999971
100
AcDbArc
 50
90.0
 51
180.0
  0
LINE
  5
349
330
37
100
AcDbEntity
  8
Sichtbare Kanten(TC_020513_DIN)
100
AcDbLine
 10
217.6691713079688
 20
104.6990051448095
 30
0.0
 11
223.670171307967
 21
104.6990051448095
 31
0.0
  0
LINE
  5
34A
330
37
100
AcDbEntity
  8
Sichtbare Kanten(TC_020513_DIN)
100
AcDbLine
 10
254.670171307967
 20
104.6990051448095
 30
0.0
 11
223.670171307967
 21
104.6990051448095
 31
0.0
  0
LINE
  5
34B
330
37
100
AcDbEntity
  8
Sichtbare Kanten(TC_020513_DIN)
100
AcDbLine
 10
254.670171307967
 20
104.6990051448095
 30
0.0
 11
260.6711713079688
 21
104.6990051448095
 31
0.0
  0
LINE
  5
34C
330
37
100
AcDbEntity
  8
Sichtbare Kanten(TC_020513_DIN)
100
AcDbLine
 10
260.6711713079688
 20
99.69900514480949
 30
0.0
 11
260.6711713079688
 21
104.6990051448095
 31
0.0
  0
LINE
  5
34D
330
37
100
AcDbEntity
  8
Sichtbare Kanten(TC_020513_DIN)
100
AcDbLine
 10
254.670171307967
 20
99.69900514480949
 30
0.0
 11
260.6711713079688
 21
99.69900514480949
 31
0.0
  0
LINE
  5
34E
330
37
100
AcDbEntity
  8
Sichtbare Kanten(TC_020513_DIN)
100
AcDbLine
 10
254.670171307967
 20
99.69900514480949
 30
0.0
 11
223.670171307967
 21
99.69900514480949
 31
0.0
  0
LINE
  5
34F
330
37
100
AcDbEntity
  8
Sichtbare Kanten(TC_020513_DIN)
100
AcDbLine
 10
217.6691713079688
 20
99.69900514480949
 30
0.0
 11
217.6691713079688
 21
104.6990051448095
 31
0.0
  0
LINE
  5
350
330
37
100
AcDbEntity
  8
Sichtbare Kanten(TC_020513_DIN)
100
AcDbLine
 10
217.6691713079688
 20
99.69900514480949
 30
0.0
 11
223.670171307967
 21
99.69900514480949
 31
0.0
  0
LINE
  5
351
330
37
100
AcDbEntity
  8
Sichtbare Kanten(TC_020513_DIN)
100
AcDbLine
 10
217.6701713079688
 20
111.9490051448095
 30
0.0
 11
217.6701713079688
 21
104.6990051448095
 31
0.0
  0
LINE
  5
352
330
37
100
AcDbEntity
  8
Sichtbare Kanten(TC_020513_DIN)
100
AcDbLine
 10
223.6701713079671
 20
111.9490051448095
 30
0.0
 11
217.6701713079689
 21
111.9490051448095
 31
0.0
  0
LINE
  5
353
330
37
100
AcDbEntity
  8
Sichtbare Kanten(TC_020513_DIN)
100
AcDbLine
 10
260.6701713079688
 20
118.4490051448095
 30
0.0
 11
260.6701713079688
 21
146.6990051448095
 31
0.0
  0
LINE
  5
354
330
37
100
AcDbEntity
  8
Sichtbare Kanten(TC_020513_DIN)
100
AcDbLine
 10
223.670171307967
 20
116.9490051448095
 30
0.0
 11
217.6701713079688
 21
116.9490051448095
 31
0.0
  0
LINE
  5
355
330
37
100
AcDbEntity
  8
Sichtbare Kanten(TC_020513_DIN)
100
AcDbLine
 10
217.6701713079688
 20
118.4490051448095
 30
0.0
 11
223.670171307967
 21
118.4490051448095
 31
0.0
  0
LINE
  5
356
330
37
100
AcDbEntity
  8
Sichtbare Kanten(TC_020513_DIN)
100
AcDbLine
 10
223.670171307967
 20
114.4490051448095
 30
0.0
 11
217.6701713079688
 21
114.4490051448095
 31
0.0
  0
LINE
  5
357
330
37
100
AcDbEntity
  8
Sichtbare Kanten(TC_020513_DIN)
100
AcDbLine
 10
217.6701713079688
 20
114.4490051448095
 30
0.0
 11
217.6701713079688
 21
113.4490051448095
 31
0.0
  0
LINE
  5
358
330
37
100
AcDbEntity
  8
Sichtbare Kanten(TC_020513_DIN)
100
AcDbLine
 10
217.6701713079688
 20
113.4490051448095
 30
0.0
 11
223.670171307967
 21
113.4490051448095
 31
0.0
  0
LINE
  5
359
330
37
100
AcDbEntity
  8
Sichtbare Kanten(TC_020513_DIN)
100
AcDbLine
 10
217.6701713079688
 20
115.9490051448095
 30
0.0
 11
223.670171307967
 21
115.9490051448095
 31
0.0
  0
LINE
  5
35A
330
37
100
AcDbEntity
  8
Sichtbare Kanten(TC_020513_DIN)
100
AcDbLine
 10
217.6701713079688
 20
146.6990051448095
 30
0.0
 11
217.6701713079688
 21
118.4490051448095
 31
0.0
  0
LINE
  5
35B
330
37
100
AcDbEntity
  8
Sichtbare Kanten(TC_020513_DIN)
100
AcDbLine
 10
217.6701713079688
 20
116.9490051448095
 30
0.0
 11
217.6701713079688
 21
115.9490051448095
 31
0.0
  0
LINE
  5
35C
330
37
100
AcDbEntity
  8
Sichtbare Kanten(TC_020513_DIN)
100
AcDbLine
 10
260.6701713079689
 20
116.9490051448095
 30
0.0
 11
254.670171307967
 21
116.9490051448095
 31
0.0
  0
LINE
  5
35D
330
37
100
AcDbEntity
  8
Sichtbare Kanten(TC_020513_DIN)
100
AcDbLine
 10
260.6701713079688
 20
115.9490051448095
 30
0.0
 11
260.6701713079688
 21
116.9490051448095
 31
0.0
  0
LINE
  5
35E
330
37
100
AcDbEntity
  8
Sichtbare Kanten(TC_020513_DIN)
100
AcDbLine
 10
254.670171307967
 20
115.9490051448095
 30
0.0
 11
260.6701713079689
 21
115.9490051448095
 31
0.0
  0
LINE
  5
35F
330
37
100
AcDbEntity
  8
Sichtbare Kanten(TC_020513_DIN)
100
AcDbLine
 10
254.670171307967
 20
118.4490051448095
 30
0.0
 11
260.6701713079689
 21
118.4490051448095
 31
0.0
  0
LINE
  5
360
330
37
100
AcDbEntity
  8
Sichtbare Kanten(TC_020513_DIN)
100
AcDbLine
 10
260.6701713079689
 20
114.4490051448095
 30
0.0
 11
254.670171307967
 21
114.4490051448095
 31
0.0
  0
LINE
  5
361
330
37
100
AcDbEntity
  8
Sichtbare Kanten(TC_020513_DIN)
100
AcDbLine
 10
260.6701713079688
 20
113.4490051448095
 30
0.0
 11
260.6701713079688
 21
114.4490051448095
 31
0.0
  0
LINE
  5
362
330
37
100
AcDbEntity
  8
Sichtbare Kanten(TC_020513_DIN)
100
AcDbLine
 10
254.670171307967
 20
113.4490051448095
 30
0.0
 11
260.6701713079689
 21
113.4490051448095
 31
0.0
  0
LINE
  5
363
330
37
100
AcDbEntity
  8
Sichtbare Kanten(TC_020513_DIN)
100
AcDbLine
 10
260.6701713079688
 20
111.9490051448095
 30
0.0
 11
254.670171307967
 21
111.9490051448095
 31
0.0
  0
LINE
  5
364
330
37
100
AcDbEntity
  8
Sichtbare Kanten(TC_020513_DIN)
100
AcDbLine
 10
260.6701713079688
 20
104.6990051448095
 30
0.0
 11
260.6701713079688
 21
111.9490051448095
 31
0.0
  0
LINE
  5
365
330
37
100
AcDbEntity
  8
Sichtbare Kanten(TC_020513_DIN)
100
AcDbLine
 10
221.1701713079809
 20
163.1990051448095
 30
0.0
 11
257.1701713079809
 21
163.1990051448095
 31
0.0
  0
LINE
  5
366
330
37
100
AcDbEntity
  8
Sichtbare Kanten(TC_020513_DIN)
100
AcDbLine
 10
257.1701713079809
 20
163.1990051448095
 30
0.0
 11
257.1701713079809
 21
149.6990051448094
 31
0.0
  0
LINE
  5
367
330
37
100
AcDbEntity
  8
Sichtbare Kanten(TC_020513_DIN)
100
AcDbLine
 10
221.1701713079809
 20
163.1990051448095
 30
0.0
 11
221.1701713079809
 21
149.6990051448094
 31
0.0
  0
LINE
  5
368
330
37
100
AcDbEntity
  8
Sichtbare Kanten(TC_020513_DIN)
100
AcDbLine
 10
258.0352302706119
 20
84.90611324501509
 30
0.0
 11
256.1727447112001
 21
83.04362768560357
 31
0.0
  0
LINE
  5
369
330
37
100
AcDbEntity
  8
Sichtbare Kanten(TC_020513_DIN)
100
AcDbLine
 10
220.3051123453151
 20
84.90611324501509
 30
0.0
 11
222.1675979047262
 21
83.04362768560359
 31
0.0
  0
LINE
  5
36A
330
37
100
AcDbEntity
  8
Sichtbare Kanten(TC_020513_DIN)
100
AcDbLine
 10
264.6701713079695
 20
106.3700325590341
 30
0.0
 11
264.6701713079707
 21
107.8853130275571
 31
0.0
  0
LINE
  5
36B
330
37
100
AcDbEntity
  8
Sichtbare Kanten(TC_020513_DIN)
100
AcDbLine
 10
264.6701713079695
 20
106.3700325590341
 30
0.0
 11
264.6701713079689
 21
104.5775780295856
 31
0.0
  0
LINE
  5
36C
330
37
100
AcDbEntity
  8
Sichtbare Kanten(TC_020513_DIN)
100
AcDbLine
 10
264.6701713079665
 20
93.19900514480949
 30
0.0
 11
264.6701713079689
 21
104.5775780295856
 31
0.0
  0
LINE
  5
36D
330
37
100
AcDbEntity
  8
Sichtbare Kanten(TC_020513_DIN)
100
AcDbLine
 10
261.1701713079727
 20
79.1990051448095
 30
0.0
 11
261.1701713079736
 21
78.94900514480949
 31
0.0
  0
LINE
  5
36E
330
37
100
AcDbEntity
  8
Sichtbare Kanten(TC_020513_DIN)
100
AcDbLine
 10
261.1701713079736
 20
110.9490051448095
 30
0.0
 11
261.1701713079689
 21
93.1990051448095
 31
0.0
  0
LINE
  5
36F
330
37
100
AcDbEntity
  8
Sichtbare Kanten(TC_020513_DIN)
100
AcDbLine
 10
261.1701713079736
 20
110.9490051448095
 30
0.0
 11
262.6701713079735
 21
110.9490051448095
 31
0.0
  0
LINE
  5
370
330
37
100
AcDbEntity
  8
Sichtbare Kanten(TC_020513_DIN)
100
AcDbLine
 10
261.1701713079736
 20
78.94900514480949
 30
0.0
 11
262.6701713079735
 21
78.94900514480949
 31
0.0
  0
LINE
  5
371
330
37
100
AcDbEntity
  8
Sichtbare Kanten(TC_020513_DIN)
100
AcDbLine
 10
262.6701713079735
 20
78.94900514480949
 30
0.0
 11
262.6701713079727
 21
79.19900514480949
 31
0.0
  0
LINE
  5
372
330
37
100
AcDbEntity
  8
Sichtbare Kanten(TC_020513_DIN)
100
AcDbLine
 10
262.6701713079707
 20
107.8853130275572
 30
0.0
 11
262.6701713079731
 21
110.8684682871699
 31
0.0
  0
LINE
  5
373
330
37
100
AcDbEntity
  8
Sichtbare Kanten(TC_020513_DIN)
100
AcDbLine
 10
264.6701713079735
 20
78.9490051448095
 30
0.0
 11
264.6701713079727
 21
79.1990051448095
 31
0.0
  0
LINE
  5
374
330
37
100
AcDbEntity
  8
Sichtbare Kanten(TC_020513_DIN)
100
AcDbLine
 10
266.1701713079689
 20
93.1990051448095
 30
0.0
 11
266.1701713079736
 21
110.9490051448095
 31
0.0
  0
LINE
  5
375
330
37
100
AcDbEntity
  8
Sichtbare Kanten(TC_020513_DIN)
100
AcDbLine
 10
266.1701713079736
 20
78.94900514480949
 30
0.0
 11
266.1701713079728
 21
79.19900514480949
 31
0.0
  0
LINE
  5
376
330
37
100
AcDbEntity
  8
Sichtbare Kanten(TC_020513_DIN)
100
AcDbLine
 10
264.6701713079735
 20
110.9490051448095
 30
0.0
 11
266.1701713079736
 21
110.9490051448095
 31
0.0
  0
LINE
  5
377
330
37
100
AcDbEntity
  8
Sichtbare Kanten(TC_020513_DIN)
100
AcDbLine
 10
264.6701713079707
 20
107.8853130275571
 30
0.0
 11
264.6701713079731
 21
110.8684682871699
 31
0.0
  0
LINE
  5
378
330
37
100
AcDbEntity
  8
Sichtbare Kanten(TC_020513_DIN)
100
AcDbLine
 10
264.6701713079735
 20
78.94900514480949
 30
0.0
 11
266.1701713079736
 21
78.94900514480949
 31
0.0
  0
LINE
  5
379
330
37
100
AcDbEntity
  8
Sichtbare Kanten(TC_020513_DIN)
100
AcDbLine
 10
264.6701713079735
 20
111.1990051448094
 30
0.0
 11
264.6701713079731
 21
110.9358270761891
 31
0.0
  0
LINE
  5
37A
330
37
100
AcDbEntity
  8
Sichtbare Kanten(TC_020513_DIN)
100
AcDbLine
 10
264.6701713079731
 20
110.8684682871699
 30
0.0
 11
264.6701713079731
 21
110.9358270761891
 31
0.0
  0
LINE
  5
37B
330
37
100
AcDbEntity
  8
Sichtbare Kanten(TC_020513_DIN)
100
AcDbLine
 10
262.6701713079735
 20
111.1990051448094
 30
0.0
 11
262.6701713079731
 21
110.9358270761891
 31
0.0
  0
LINE
  5
37C
330
37
100
AcDbEntity
  8
Sichtbare Kanten(TC_020513_DIN)
100
AcDbLine
 10
262.6701713079695
 20
106.3700325590341
 30
0.0
 11
262.6701713079707
 21
107.8853130275571
 31
0.0
  0
LINE
  5
37D
330
37
100
AcDbEntity
  8
Sichtbare Kanten(TC_020513_DIN)
100
AcDbLine
 10
262.6701713079731
 20
110.8684682871699
 30
0.0
 11
262.6701713079731
 21
110.9358270761891
 31
0.0
  0
LINE
  5
37E
330
37
100
AcDbEntity
  8
Sichtbare Kanten(TC_020513_DIN)
100
AcDbLine
 10
262.6701713079695
 20
106.3700325590341
 30
0.0
 11
262.6701713079689
 21
104.5775780295856
 31
0.0
  0
LINE
  5
37F
330
37
100
AcDbEntity
  8
Sichtbare Kanten(TC_020513_DIN)
100
AcDbLine
 10
262.6701713079665
 20
93.19900514480949
 30
0.0
 11
262.6701713079689
 21
104.5775780295856
 31
0.0
  0
LINE
  5
380
330
37
100
AcDbEntity
  8
Sichtbare Kanten(TC_020513_DIN)
100
AcDbLine
 10
266.3701713079701
 20
100.6490051448095
 30
0.0
 11
266.3701713079701
 21
102.7490051448095
 31
0.0
  0
LINE
  5
381
330
37
100
AcDbEntity
  8
Sichtbare Kanten(TC_020513_DIN)
100
AcDbLine
 10
260.9701713079701
 20
100.6490051448095
 30
0.0
 11
260.9701713079701
 21
102.7490051448095
 31
0.0
  0
LINE
  5
382
330
37
100
AcDbEntity
  8
Sichtbare Kanten(TC_020513_DIN)
100
AcDbLine
 10
262.6701713079735
 20
111.1990051448095
 30
0.0
 11
264.6701713079735
 21
111.1990051448095
 31
0.0
  0
ARC
  5
383
330
37
100
AcDbEntity
  8
Sichtbare Kanten(TC_020513_DIN)
100
AcDbCircle
 10
266.1701713079701
 20
102.7490051448095
 30
0.0
 40
0.2000000000000005
100
AcDbArc
 50
0.0
 51
90.0
  0
ARC
  5
384
330
37
100
AcDbEntity
  8
Sichtbare Kanten(TC_020513_DIN)
100
AcDbCircle
 10
266.1701713079701
 20
100.6490051448095
 30
0.0
 40
0.2000000000000005
100
AcDbArc
 50
270.0
 51
0.0
  0
ARC
  5
385
330
37
100
AcDbEntity
  8
Sichtbare Kanten(TC_020513_DIN)
100
AcDbCircle
 10
261.1701713079701
 20
102.7490051448095
 30
0.0
 40
0.2000000000000004
100
AcDbArc
 50
90.0
 51
180.0
  0
ARC
  5
386
330
37
100
AcDbEntity
  8
Sichtbare Kanten(TC_020513_DIN)
100
AcDbCircle
 10
261.1701713079701
 20
100.6490051448095
 30
0.0
 40
0.2000000000000004
100
AcDbArc
 50
180.0
 51
270.0
  0
LINE
  5
387
330
37
100
AcDbEntity
  8
Sichtbare Kanten(TC_020513_DIN)
100
AcDbLine
 10
215.6701713079696
 20
106.3700325590341
 30
0.0
 11
215.6701713079708
 21
107.8853130275571
 31
0.0
  0
LINE
  5
388
330
37
100
AcDbEntity
  8
Sichtbare Kanten(TC_020513_DIN)
100
AcDbLine
 10
215.6701713079696
 20
106.3700325590341
 30
0.0
 11
215.6701713079689
 21
104.5775780295856
 31
0.0
  0
LINE
  5
389
330
37
100
AcDbEntity
  8
Sichtbare Kanten(TC_020513_DIN)
100
AcDbLine
 10
215.6701713079665
 20
93.19900514480949
 30
0.0
 11
215.6701713079689
 21
104.5775780295856
 31
0.0
  0
LINE
  5
38A
330
37
100
AcDbEntity
  8
Sichtbare Kanten(TC_020513_DIN)
100
AcDbLine
 10
215.6701713079736
 20
78.94900514480949
 30
0.0
 11
215.6701713079727
 21
79.19900514480949
 31
0.0
  0
LINE
  5
38B
330
37
100
AcDbEntity
  8
Sichtbare Kanten(TC_020513_DIN)
100
AcDbLine
 10
217.1701713079727
 20
79.1990051448095
 30
0.0
 11
217.1701713079736
 21
78.94900514480949
 31
0.0
  0
LINE
  5
38C
330
37
100
AcDbEntity
  8
Sichtbare Kanten(TC_020513_DIN)
100
AcDbLine
 10
217.1701713079736
 20
110.9490051448095
 30
0.0
 11
217.1701713079688
 21
93.1990051448095
 31
0.0
  0
LINE
  5
38D
330
37
100
AcDbEntity
  8
Sichtbare Kanten(TC_020513_DIN)
100
AcDbLine
 10
215.6701713079708
 20
107.8853130275572
 30
0.0
 11
215.6701713079731
 21
110.8684682871699
 31
0.0
  0
LINE
  5
38E
330
37
100
AcDbEntity
  8
Sichtbare Kanten(TC_020513_DIN)
100
AcDbLine
 10
217.1701713079736
 20
78.94900514480949
 30
0.0
 11
215.6701713079736
 21
78.94900514480949
 31
0.0
  0
LINE
  5
38F
330
37
100
AcDbEntity
  8
Sichtbare Kanten(TC_020513_DIN)
100
AcDbLine
 10
217.1701713079736
 20
110.9490051448095
 30
0.0
 11
215.6701713079736
 21
110.9490051448095
 31
0.0
  0
LINE
  5
390
330
37
100
AcDbEntity
  8
Sichtbare Kanten(TC_020513_DIN)
100
AcDbLine
 10
212.1701713079688
 20
93.1990051448095
 30
0.0
 11
212.1701713079735
 21
110.9490051448095
 31
0.0
  0
LINE
  5
391
330
37
100
AcDbEntity
  8
Sichtbare Kanten(TC_020513_DIN)
100
AcDbLine
 10
212.1701713079735
 20
78.94900514480949
 30
0.0
 11
212.1701713079727
 21
79.19900514480949
 31
0.0
  0
LINE
  5
392
330
37
100
AcDbEntity
  8
Sichtbare Kanten(TC_020513_DIN)
100
AcDbLine
 10
213.6701713079736
 20
78.94900514480949
 30
0.0
 11
212.1701713079735
 21
78.94900514480949
 31
0.0
  0
LINE
  5
393
330
37
100
AcDbEntity
  8
Sichtbare Kanten(TC_020513_DIN)
100
AcDbLine
 10
213.6701713079736
 20
78.9490051448095
 30
0.0
 11
213.6701713079727
 21
79.1990051448095
 31
0.0
  0
LINE
  5
394
330
37
100
AcDbEntity
  8
Sichtbare Kanten(TC_020513_DIN)
100
AcDbLine
 10
213.6701713079708
 20
107.8853130275571
 30
0.0
 11
213.6701713079731
 21
110.8684682871699
 31
0.0
  0
LINE
  5
395
330
37
100
AcDbEntity
  8
Sichtbare Kanten(TC_020513_DIN)
100
AcDbLine
 10
213.6701713079736
 20
110.9490051448095
 30
0.0
 11
212.1701713079735
 21
110.9490051448095
 31
0.0
  0
LINE
  5
396
330
37
100
AcDbEntity
  8
Sichtbare Kanten(TC_020513_DIN)
100
AcDbLine
 10
215.6701713079736
 20
111.1990051448094
 30
0.0
 11
215.6701713079731
 21
110.9358270761891
 31
0.0
  0
LINE
  5
397
330
37
100
AcDbEntity
  8
Sichtbare Kanten(TC_020513_DIN)
100
AcDbLine
 10
215.6701713079731
 20
110.8684682871699
 30
0.0
 11
215.6701713079731
 21
110.9358270761891
 31
0.0
  0
LINE
  5
398
330
37
100
AcDbEntity
  8
Sichtbare Kanten(TC_020513_DIN)
100
AcDbLine
 10
213.6701713079736
 20
111.1990051448094
 30
0.0
 11
213.6701713079731
 21
110.9358270761891
 31
0.0
  0
LINE
  5
399
330
37
100
AcDbEntity
  8
Sichtbare Kanten(TC_020513_DIN)
100
AcDbLine
 10
213.6701713079731
 20
110.8684682871699
 30
0.0
 11
213.6701713079731
 21
110.9358270761891
 31
0.0
  0
LINE
  5
39A
330
37
100
AcDbEntity
  8
Sichtbare Kanten(TC_020513_DIN)
100
AcDbLine
 10
213.6701713079696
 20
106.3700325590341
 30
0.0
 11
213.6701713079708
 21
107.8853130275571
 31
0.0
  0
LINE
  5
39B
330
37
100
AcDbEntity
  8
Sichtbare Kanten(TC_020513_DIN)
100
AcDbLine
 10
213.6701713079696
 20
106.3700325590341
 30
0.0
 11
213.6701713079689
 21
104.5775780295856
 31
0.0
  0
LINE
  5
39C
330
37
100
AcDbEntity
  8
Sichtbare Kanten(TC_020513_DIN)
100
AcDbLine
 10
213.6701713079665
 20
93.19900514480949
 30
0.0
 11
213.6701713079689
 21
104.5775780295856
 31
0.0
  0
LINE
  5
39D
330
37
100
AcDbEntity
  8
Sichtbare Kanten(TC_020513_DIN)
100
AcDbLine
 10
211.9701713079701
 20
100.6490051448095
 30
0.0
 11
211.9701713079701
 21
102.7490051448095
 31
0.0
  0
LINE
  5
39E
330
37
100
AcDbEntity
  8
Sichtbare Kanten(TC_020513_DIN)
100
AcDbLine
 10
217.3701713079701
 20
100.6490051448095
 30
0.0
 11
217.3701713079701
 21
102.7490051448095
 31
0.0
  0
LINE
  5
39F
330
37
100
AcDbEntity
  8
Sichtbare Kanten(TC_020513_DIN)
100
AcDbLine
 10
213.6701713079736
 20
111.1990051448095
 30
0.0
 11
215.6701713079736
 21
111.1990051448095
 31
0.0
  0
ARC
  5
3A0
330
37
100
AcDbEntity
  8
Sichtbare Kanten(TC_020513_DIN)
100
AcDbCircle
 10
212.1701713079701
 20
100.6490051448095
 30
0.0
 40
0.2000000000000005
100
AcDbArc
 50
180.0
 51
270.0
  0
ARC
  5
3A1
330
37
100
AcDbEntity
  8
Sichtbare Kanten(TC_020513_DIN)
100
AcDbCircle
 10
212.1701713079701
 20
102.7490051448095
 30
0.0
 40
0.2000000000000005
100
AcDbArc
 50
90.0
 51
180.0
  0
ARC
  5
3A2
330
37
100
AcDbEntity
  8
Sichtbare Kanten(TC_020513_DIN)
100
AcDbCircle
 10
217.1701713079701
 20
100.6490051448095
 30
0.0
 40
0.2000000000000004
100
AcDbArc
 50
270.0
 51
0.0
  0
ARC
  5
3A3
330
37
100
AcDbEntity
  8
Sichtbare Kanten(TC_020513_DIN)
100
AcDbCircle
 10
217.1701713079701
 20
102.7490051448095
 30
0.0
 40
0.2000000000000004
100
AcDbArc
 50
0.0
 51
90.0
  0
LINE
  5
3A4
330
37
100
AcDbEntity
  8
Sichtbare Kanten(TC_020513_DIN)
100
AcDbLine
 10
210.7701713079736
 20
111.6990051448095
 30
0.0
 11
210.7701713079736
 21
102.6990051448095
 31
0.0
  0
LINE
  5
3A5
330
37
100
AcDbEntity
  8
Sichtbare Kanten(TC_020513_DIN)
100
AcDbLine
 10
210.2701713079736
 20
111.6990051448095
 30
0.0
 11
210.2701713079736
 21
102.6990051448095
 31
0.0
  0
LINE
  5
3A6
330
37
100
AcDbEntity
  8
Sichtbare Kanten(TC_020513_DIN)
100
AcDbLine
 10
209.6701713079736
 20
110.6990051448095
 30
0.0
 11
209.6701713079736
 21
103.6990051448095
 31
0.0
  0
LINE
  5
3A7
330
37
100
AcDbEntity
  8
Sichtbare Kanten(TC_020513_DIN)
100
AcDbLine
 10
217.6691713079736
 20
104.6990051448095
 30
0.0
 11
217.1701713079736
 21
104.6990051448095
 31
0.0
  0
LINE
  5
3A8
330
37
100
AcDbEntity
  8
Sichtbare Kanten(TC_020513_DIN)
100
AcDbLine
 10
217.6701713079736
 20
109.6990051448095
 30
0.0
 11
217.1701713079736
 21
109.6990051448095
 31
0.0
  0
LINE
  5
3A9
330
37
100
AcDbEntity
  8
Sichtbare Kanten(TC_020513_DIN)
100
AcDbLine
 10
210.7701713079736
 20
102.6990051448095
 30
0.0
 11
210.2701713079736
 21
102.6990051448095
 31
0.0
  0
LINE
  5
3AA
330
37
100
AcDbEntity
  8
Sichtbare Kanten(TC_020513_DIN)
100
AcDbLine
 10
210.7701713079736
 20
111.6990051448095
 30
0.0
 11
210.2701713079736
 21
111.6990051448095
 31
0.0
  0
LINE
  5
3AB
330
37
100
AcDbEntity
  8
Sichtbare Kanten(TC_020513_DIN)
100
AcDbLine
 10
209.6701713079736
 20
110.6990051448095
 30
0.0
 11
210.2701713079736
 21
111.6990051448095
 31
0.0
  0
LINE
  5
3AC
330
37
100
AcDbEntity
  8
Sichtbare Kanten(TC_020513_DIN)
100
AcDbLine
 10
209.6701713079736
 20
103.6990051448095
 30
0.0
 11
210.2701713079736
 21
102.6990051448095
 31
0.0
  0
LINE
  5
3AD
330
37
100
AcDbEntity
  8
Sichtbare Kanten(TC_020513_DIN)
100
AcDbLine
 10
212.1701713079735
 20
104.6990051448095
 30
0.0
 11
210.7701713079736
 21
104.6990051448095
 31
0.0
  0
LINE
  5
3AE
330
37
100
AcDbEntity
  8
Sichtbare Kanten(TC_020513_DIN)
100
AcDbLine
 10
212.1701713079735
 20
109.6990051448095
 30
0.0
 11
210.7701713079736
 21
109.6990051448095
 31
0.0
  0
LINE
  5
3AF
330
37
100
AcDbEntity
  8
Sichtbare Kanten(TC_020513_DIN)
100
AcDbLine
 10
267.5701713079736
 20
111.6990051448095
 30
0.0
 11
267.5701713079736
 21
102.6990051448095
 31
0.0
  0
LINE
  5
3B0
330
37
100
AcDbEntity
  8
Sichtbare Kanten(TC_020513_DIN)
100
AcDbLine
 10
268.0701713079736
 20
111.6990051448095
 30
0.0
 11
268.0701713079736
 21
102.6990051448095
 31
0.0
  0
LINE
  5
3B1
330
37
100
AcDbEntity
  8
Sichtbare Kanten(TC_020513_DIN)
100
AcDbLine
 10
268.6701713079736
 20
110.6990051448095
 30
0.0
 11
268.6701713079736
 21
103.6990051448095
 31
0.0
  0
LINE
  5
3B2
330
37
100
AcDbEntity
  8
Sichtbare Kanten(TC_020513_DIN)
100
AcDbLine
 10
261.1701713079735
 20
104.6990051448095
 30
0.0
 11
260.6711713079736
 21
104.6990051448095
 31
0.0
  0
LINE
  5
3B3
330
37
100
AcDbEntity
  8
Sichtbare Kanten(TC_020513_DIN)
100
AcDbLine
 10
261.1701713079735
 20
109.6990051448095
 30
0.0
 11
260.6701713079736
 21
109.6990051448095
 31
0.0
  0
LINE
  5
3B4
330
37
100
AcDbEntity
  8
Sichtbare Kanten(TC_020513_DIN)
100
AcDbLine
 10
268.0701713079736
 20
102.6990051448095
 30
0.0
 11
267.5701713079736
 21
102.6990051448095
 31
0.0
  0
LINE
  5
3B5
330
37
100
AcDbEntity
  8
Sichtbare Kanten(TC_020513_DIN)
100
AcDbLine
 10
268.0701713079736
 20
111.6990051448095
 30
0.0
 11
267.5701713079736
 21
111.6990051448095
 31
0.0
  0
LINE
  5
3B6
330
37
100
AcDbEntity
  8
Sichtbare Kanten(TC_020513_DIN)
100
AcDbLine
 10
268.6701713079736
 20
103.6990051448095
 30
0.0
 11
268.0701713079736
 21
102.6990051448095
 31
0.0
  0
LINE
  5
3B7
330
37
100
AcDbEntity
  8
Sichtbare Kanten(TC_020513_DIN)
100
AcDbLine
 10
268.6701713079736
 20
110.6990051448095
 30
0.0
 11
268.0701713079736
 21
111.6990051448095
 31
0.0
  0
LINE
  5
3B8
330
37
100
AcDbEntity
  8
Sichtbare Kanten(TC_020513_DIN)
100
AcDbLine
 10
267.5701713079736
 20
104.6990051448095
 30
0.0
 11
266.1701713079736
 21
104.6990051448095
 31
0.0
  0
LINE
  5
3B9
330
37
100
AcDbEntity
  8
Sichtbare Kanten(TC_020513_DIN)
100
AcDbLine
 10
267.5701713079736
 20
109.6990051448095
 30
0.0
 11
266.1701713079736
 21
109.6990051448095
 31
0.0
  0
LINE
  5
3BA
330
37
100
AcDbEntity
  8
Sichtbare Kanten(TC_020513_DIN)
100
AcDbLine
 10
223.670171307967
 20
116.9490051448095
 30
0.0
 11
237.670171307967
 21
116.9490051448095
 31
0.0
  0
LINE
  5
3BB
330
37
100
AcDbEntity
  8
Sichtbare Kanten(TC_020513_DIN)
100
AcDbLine
 10
237.670171307967
 20
118.4490051448095
 30
0.0
 11
223.670171307967
 21
118.4490051448095
 31
0.0
  0
LINE
  5
3BC
330
37
100
AcDbEntity
  8
Sichtbare Kanten(TC_020513_DIN)
100
AcDbLine
 10
223.670171307967
 20
114.4490051448095
 30
0.0
 11
237.670171307967
 21
114.4490051448095
 31
0.0
  0
LINE
  5
3BD
330
37
100
AcDbEntity
  8
Sichtbare Kanten(TC_020513_DIN)
100
AcDbLine
 10
240.670171307967
 20
111.9490051448095
 30
0.0
 11
254.670171307967
 21
111.9490051448095
 31
0.0
  0
LINE
  5
3BE
330
37
100
AcDbEntity
  8
Sichtbare Kanten(TC_020513_DIN)
100
AcDbLine
 10
240.670171307967
 20
113.4490051448095
 30
0.0
 11
240.670171307967
 21
111.9490051448095
 31
0.0
  0
LINE
  5
3BF
330
37
100
AcDbEntity
  8
Sichtbare Kanten(TC_020513_DIN)
100
AcDbLine
 10
254.670171307967
 20
113.4490051448095
 30
0.0
 11
240.670171307967
 21
113.4490051448095
 31
0.0
  0
LINE
  5
3C0
330
37
100
AcDbEntity
  8
Sichtbare Kanten(TC_020513_DIN)
100
AcDbLine
 10
240.670171307967
 20
114.4490051448095
 30
0.0
 11
254.670171307967
 21
114.4490051448095
 31
0.0
  0
LINE
  5
3C1
330
37
100
AcDbEntity
  8
Sichtbare Kanten(TC_020513_DIN)
100
AcDbLine
 10
240.670171307967
 20
115.9490051448095
 30
0.0
 11
240.670171307967
 21
114.4490051448095
 31
0.0
  0
LINE
  5
3C2
330
37
100
AcDbEntity
  8
Sichtbare Kanten(TC_020513_DIN)
100
AcDbLine
 10
254.670171307967
 20
115.9490051448095
 30
0.0
 11
240.670171307967
 21
115.9490051448095
 31
0.0
  0
LINE
  5
3C3
330
37
100
AcDbEntity
  8
Sichtbare Kanten(TC_020513_DIN)
100
AcDbLine
 10
240.670171307967
 20
116.9490051448095
 30
0.0
 11
254.670171307967
 21
116.9490051448095
 31
0.0
  0
LINE
  5
3C4
330
37
100
AcDbEntity
  8
Sichtbare Kanten(TC_020513_DIN)
100
AcDbLine
 10
240.670171307967
 20
118.4490051448095
 30
0.0
 11
240.670171307967
 21
116.9490051448095
 31
0.0
  0
LINE
  5
3C5
330
37
100
AcDbEntity
  8
Sichtbare Kanten(TC_020513_DIN)
100
AcDbLine
 10
254.670171307967
 20
118.4490051448095
 30
0.0
 11
240.670171307967
 21
118.4490051448095
 31
0.0
  0
LINE
  5
3C6
330
37
100
AcDbEntity
  8
Sichtbare Kanten(TC_020513_DIN)
100
AcDbLine
 10
237.670171307967
 20
116.9490051448095
 30
0.0
 11
237.670171307967
 21
118.4490051448095
 31
0.0
  0
LINE
  5
3C7
330
37
100
AcDbEntity
  8
Sichtbare Kanten(TC_020513_DIN)
100
AcDbLine
 10
237.670171307967
 20
115.9490051448095
 30
0.0
 11
223.670171307967
 21
115.9490051448095
 31
0.0
  0
LINE
  5
3C8
330
37
100
AcDbEntity
  8
Sichtbare Kanten(TC_020513_DIN)
100
AcDbLine
 10
237.670171307967
 20
114.4490051448095
 30
0.0
 11
237.670171307967
 21
115.9490051448095
 31
0.0
  0
LINE
  5
3C9
330
37
100
AcDbEntity
  8
Sichtbare Kanten(TC_020513_DIN)
100
AcDbLine
 10
237.670171307967
 20
113.4490051448095
 30
0.0
 11
223.670171307967
 21
113.4490051448095
 31
0.0
  0
LINE
  5
3CA
330
37
100
AcDbEntity
  8
Sichtbare Kanten(TC_020513_DIN)
100
AcDbLine
 10
237.670171307967
 20
111.9490051448095
 30
0.0
 11
237.670171307967
 21
113.4490051448095
 31
0.0
  0
LINE
  5
3CB
330
37
100
AcDbEntity
  8
Sichtbare Kanten(TC_020513_DIN)
100
AcDbLine
 10
223.670171307967
 20
111.9490051448095
 30
0.0
 11
237.670171307967
 21
111.9490051448095
 31
0.0
  0
LINE
  5
3CC
330
37
100
AcDbEntity
  8
Sichtbare Kanten(TC_020513_DIN)
100
AcDbLine
 10
223.6701713079673
 20
117.6490051448095
 30
0.0
 11
237.6701713079672
 21
117.6490051448095
 31
0.0
  0
LINE
  5
3CD
330
37
100
AcDbEntity
  8
Sichtbare Kanten(TC_020513_DIN)
100
AcDbLine
 10
223.6701713079673
 20
117.6490051448095
 30
0.0
 11
218.3701713079688
 21
117.6490051448095
 31
0.0
  0
LINE
  5
3CE
330
37
100
AcDbEntity
  8
Sichtbare Kanten(TC_020513_DIN)
100
AcDbLine
 10
218.3701713079688
 20
117.6490051448095
 30
0.0
 11
217.6701713079688
 21
116.9490051448095
 31
0.0
  0
LINE
  5
3CF
330
37
100
AcDbEntity
  8
Sichtbare Kanten(TC_020513_DIN)
100
AcDbLine
 10
218.3701713079688
 20
117.7490051448095
 30
0.0
 11
217.6701713079688
 21
118.4490051448095
 31
0.0
  0
LINE
  5
3D0
330
37
100
AcDbEntity
  8
Sichtbare Kanten(TC_020513_DIN)
100
AcDbLine
 10
218.3701713079688
 20
117.7490051448095
 30
0.0
 11
223.6701713079673
 21
117.7490051448095
 31
0.0
  0
LINE
  5
3D1
330
37
100
AcDbEntity
  8
Sichtbare Kanten(TC_020513_DIN)
100
AcDbLine
 10
237.6701713079672
 20
117.7490051448095
 30
0.0
 11
223.6701713079673
 21
117.7490051448095
 31
0.0
  0
LINE
  5
3D2
330
37
100
AcDbEntity
  8
Sichtbare Kanten(TC_020513_DIN)
100
AcDbLine
 10
223.6701713079673
 20
115.1490051448095
 30
0.0
 11
218.3701713079688
 21
115.1490051448095
 31
0.0
  0
LINE
  5
3D3
330
37
100
AcDbEntity
  8
Sichtbare Kanten(TC_020513_DIN)
100
AcDbLine
 10
218.3701713079688
 20
115.1490051448095
 30
0.0
 11
217.6701713079688
 21
114.4490051448095
 31
0.0
  0
LINE
  5
3D4
330
37
100
AcDbEntity
  8
Sichtbare Kanten(TC_020513_DIN)
100
AcDbLine
 10
223.6701713079673
 20
115.1490051448095
 30
0.0
 11
237.6701713079672
 21
115.1490051448095
 31
0.0
  0
LINE
  5
3D5
330
37
100
AcDbEntity
  8
Sichtbare Kanten(TC_020513_DIN)
100
AcDbLine
 10
218.3701713079688
 20
115.2490051448095
 30
0.0
 11
217.6701713079688
 21
115.9490051448095
 31
0.0
  0
LINE
  5
3D6
330
37
100
AcDbEntity
  8
Sichtbare Kanten(TC_020513_DIN)
100
AcDbLine
 10
218.3701713079688
 20
115.2490051448095
 30
0.0
 11
223.6701713079673
 21
115.2490051448095
 31
0.0
  0
LINE
  5
3D7
330
37
100
AcDbEntity
  8
Sichtbare Kanten(TC_020513_DIN)
100
AcDbLine
 10
237.6701713079672
 20
115.2490051448095
 30
0.0
 11
223.6701713079673
 21
115.2490051448095
 31
0.0
  0
LINE
  5
3D8
330
37
100
AcDbEntity
  8
Sichtbare Kanten(TC_020513_DIN)
100
AcDbLine
 10
218.3701713079688
 20
117.6490051448095
 30
0.0
 11
218.3701713079688
 21
117.7490051448095
 31
0.0
  0
LINE
  5
3D9
330
37
100
AcDbEntity
  8
Sichtbare Kanten(TC_020513_DIN)
100
AcDbLine
 10
218.3701713079688
 20
115.1490051448095
 30
0.0
 11
218.3701713079688
 21
115.2490051448095
 31
0.0
  0
LINE
  5
3DA
330
37
100
AcDbEntity
  8
Sichtbare Kanten(TC_020513_DIN)
100
AcDbLine
 10
217.6701713079688
 20
111.9490051448095
 30
0.0
 11
218.3701713079688
 21
112.6490051448095
 31
0.0
  0
LINE
  5
3DB
330
37
100
AcDbEntity
  8
Sichtbare Kanten(TC_020513_DIN)
100
AcDbLine
 10
223.6701713079673
 20
112.6490051448095
 30
0.0
 11
218.3701713079688
 21
112.6490051448095
 31
0.0
  0
LINE
  5
3DC
330
37
100
AcDbEntity
  8
Sichtbare Kanten(TC_020513_DIN)
100
AcDbLine
 10
223.6701713079673
 20
112.6490051448095
 30
0.0
 11
237.6701713079672
 21
112.6490051448095
 31
0.0
  0
LINE
  5
3DD
330
37
100
AcDbEntity
  8
Sichtbare Kanten(TC_020513_DIN)
100
AcDbLine
 10
218.3701713079688
 20
112.7490051448095
 30
0.0
 11
217.6701713079688
 21
113.4490051448095
 31
0.0
  0
LINE
  5
3DE
330
37
100
AcDbEntity
  8
Sichtbare Kanten(TC_020513_DIN)
100
AcDbLine
 10
218.3701713079688
 20
112.7490051448095
 30
0.0
 11
223.6701713079673
 21
112.7490051448095
 31
0.0
  0
LINE
  5
3DF
330
37
100
AcDbEntity
  8
Sichtbare Kanten(TC_020513_DIN)
100
AcDbLine
 10
237.6701713079672
 20
112.7490051448095
 30
0.0
 11
223.6701713079673
 21
112.7490051448095
 31
0.0
  0
LINE
  5
3E0
330
37
100
AcDbEntity
  8
Sichtbare Kanten(TC_020513_DIN)
100
AcDbLine
 10
218.3701713079688
 20
112.6490051448095
 30
0.0
 11
218.3701713079688
 21
112.7490051448095
 31
0.0
  0
LINE
  5
3E1
330
37
100
AcDbEntity
  8
Sichtbare Kanten(TC_020513_DIN)
100
AcDbLine
 10
254.6701713079672
 20
117.6490051448095
 30
0.0
 11
240.6701713079673
 21
117.6490051448095
 31
0.0
  0
LINE
  5
3E2
330
37
100
AcDbEntity
  8
Sichtbare Kanten(TC_020513_DIN)
100
AcDbLine
 10
260.6701713079688
 20
116.9490051448095
 30
0.0
 11
259.9701713079688
 21
117.6490051448095
 31
0.0
  0
LINE
  5
3E3
330
37
100
AcDbEntity
  8
Sichtbare Kanten(TC_020513_DIN)
100
AcDbLine
 10
254.6701713079672
 20
117.6490051448095
 30
0.0
 11
259.9701713079688
 21
117.6490051448095
 31
0.0
  0
LINE
  5
3E4
330
37
100
AcDbEntity
  8
Sichtbare Kanten(TC_020513_DIN)
100
AcDbLine
 10
260.6701713079688
 20
118.4490051448095
 30
0.0
 11
259.9701713079688
 21
117.7490051448095
 31
0.0
  0
LINE
  5
3E5
330
37
100
AcDbEntity
  8
Sichtbare Kanten(TC_020513_DIN)
100
AcDbLine
 10
259.9701713079688
 20
117.7490051448095
 30
0.0
 11
254.6701713079672
 21
117.7490051448095
 31
0.0
  0
LINE
  5
3E6
330
37
100
AcDbEntity
  8
Sichtbare Kanten(TC_020513_DIN)
100
AcDbLine
 10
240.6701713079673
 20
117.7490051448095
 30
0.0
 11
254.6701713079672
 21
117.7490051448095
 31
0.0
  0
LINE
  5
3E7
330
37
100
AcDbEntity
  8
Sichtbare Kanten(TC_020513_DIN)
100
AcDbLine
 10
254.6701713079672
 20
115.1490051448095
 30
0.0
 11
240.6701713079673
 21
115.1490051448095
 31
0.0
  0
LINE
  5
3E8
330
37
100
AcDbEntity
  8
Sichtbare Kanten(TC_020513_DIN)
100
AcDbLine
 10
260.6701713079688
 20
114.4490051448095
 30
0.0
 11
259.9701713079688
 21
115.1490051448095
 31
0.0
  0
LINE
  5
3E9
330
37
100
AcDbEntity
  8
Sichtbare Kanten(TC_020513_DIN)
100
AcDbLine
 10
254.6701713079672
 20
115.1490051448095
 30
0.0
 11
259.9701713079688
 21
115.1490051448095
 31
0.0
  0
LINE
  5
3EA
330
37
100
AcDbEntity
  8
Sichtbare Kanten(TC_020513_DIN)
100
AcDbLine
 10
260.6701713079688
 20
115.9490051448095
 30
0.0
 11
259.9701713079688
 21
115.2490051448095
 31
0.0
  0
LINE
  5
3EB
330
37
100
AcDbEntity
  8
Sichtbare Kanten(TC_020513_DIN)
100
AcDbLine
 10
259.9701713079688
 20
115.2490051448095
 30
0.0
 11
254.6701713079672
 21
115.2490051448095
 31
0.0
  0
LINE
  5
3EC
330
37
100
AcDbEntity
  8
Sichtbare Kanten(TC_020513_DIN)
100
AcDbLine
 10
240.6701713079673
 20
115.2490051448095
 30
0.0
 11
254.6701713079672
 21
115.2490051448095
 31
0.0
  0
LINE
  5
3ED
330
37
100
AcDbEntity
  8
Sichtbare Kanten(TC_020513_DIN)
100
AcDbLine
 10
259.9701713079688
 20
117.6490051448095
 30
0.0
 11
259.9701713079688
 21
117.7490051448095
 31
0.0
  0
LINE
  5
3EE
330
37
100
AcDbEntity
  8
Sichtbare Kanten(TC_020513_DIN)
100
AcDbLine
 10
259.9701713079688
 20
115.1490051448095
 30
0.0
 11
259.9701713079688
 21
115.2490051448095
 31
0.0
  0
LINE
  5
3EF
330
37
100
AcDbEntity
  8
Sichtbare Kanten(TC_020513_DIN)
100
AcDbLine
 10
254.6701713079672
 20
112.6490051448095
 30
0.0
 11
240.6701713079673
 21
112.6490051448095
 31
0.0
  0
LINE
  5
3F0
330
37
100
AcDbEntity
  8
Sichtbare Kanten(TC_020513_DIN)
100
AcDbLine
 10
260.6701713079688
 20
111.9490051448095
 30
0.0
 11
259.9701713079688
 21
112.6490051448095
 31
0.0
  0
LINE
  5
3F1
330
37
100
AcDbEntity
  8
Sichtbare Kanten(TC_020513_DIN)
100
AcDbLine
 10
254.6701713079672
 20
112.6490051448095
 30
0.0
 11
259.9701713079688
 21
112.6490051448095
 31
0.0
  0
LINE
  5
3F2
330
37
100
AcDbEntity
  8
Sichtbare Kanten(TC_020513_DIN)
100
AcDbLine
 10
260.6701713079688
 20
113.4490051448095
 30
0.0
 11
259.9701713079688
 21
112.7490051448095
 31
0.0
  0
LINE
  5
3F3
330
37
100
AcDbEntity
  8
Sichtbare Kanten(TC_020513_DIN)
100
AcDbLine
 10
259.9701713079688
 20
112.7490051448095
 30
0.0
 11
254.6701713079672
 21
112.7490051448095
 31
0.0
  0
LINE
  5
3F4
330
37
100
AcDbEntity
  8
Sichtbare Kanten(TC_020513_DIN)
100
AcDbLine
 10
240.6701713079673
 20
112.7490051448095
 30
0.0
 11
254.6701713079672
 21
112.7490051448095
 31
0.0
  0
LINE
  5
3F5
330
37
100
AcDbEntity
  8
Sichtbare Kanten(TC_020513_DIN)
100
AcDbLine
 10
259.9701713079688
 20
112.6490051448095
 30
0.0
 11
259.9701713079688
 21
112.7490051448095
 31
0.0
  0
DIMENSION
  5
3F6
330
37
100
AcDbEntity
  8
Bemaßungen(TC_020513_DIN)
  6
Continuous
 62
     7
370
    25
100
AcDbDimension
  2
*D11
 10
252.5601713079809
 20
174.6406636042735
 30
0.0
 11
239.1701713079809
 21
174.6406636042735
 31
0.0
 70
   160
  1
 PG21
 42
26.78
  3
STANDARD-TC_020513_DIN
100
AcDbAlignedDimension
 13
225.7801713079809
 23
157.5080221391844
 33
0.0
 14
252.5601713079809
 24
162.6990051448095
 34
0.0
 50
180.0
100
AcDbRotatedDimension
1001
ACAD
1000
DSTYLE
1002
{
1070
   271
1070
     2
1070
   272
1070
     2
1070
    48
1040
0.0
1070
    47
1040
0.0
1002
}
  0
ARC
  5
4BC
330
37
100
AcDbEntity
  8
Stich 1-Linien(TC_020513_DIN)
 48
27.44647407531739
100
AcDbCircle
 10
90.48686842036762
 20
107.1990051448095
 30
0.0
 40
52.00000000000001
100
AcDbArc
 50
180.0
 51
230.0076343566775
  0
ARC
  5
4BD
330
37
100
AcDbEntity
  8
Stich 1-Linien(TC_020513_DIN)
 48
27.44647407531739
100
AcDbCircle
 10
139.9868684203676
 20
107.1990051448095
 30
0.0
 40
51.99999999999999
100
AcDbArc
 50
309.9923656433225
 51
0.0
  0
LINE
  5
4BE
330
37
100
AcDbEntity
  8
Mittelpunktmarkierung(TC_020513_DIN)
  6
CHAIN
 48
13.33438873291015
100
AcDbLine
 10
96.48686842036761
 20
107.1990051448095
 30
0.0
 11
84.48686842036762
 21
107.1990051448095
 31
0.0
  0
LINE
  5
4BF
330
37
100
AcDbEntity
  8
Mittelpunktmarkierung(TC_020513_DIN)
  6
CHAIN
 48
13.33438873291015
100
AcDbLine
 10
90.48686842036762
 20
113.1990051448095
 30
0.0
 11
90.48686842036762
 21
101.1990051448095
 31
0.0
  0
LINE
  5
4C0
330
37
100
AcDbEntity
  8
Mittelpunktmarkierung(TC_020513_DIN)
  6
CHAIN
 48
13.33438873291015
100
AcDbLine
 10
145.9868684203676
 20
107.1990051448095
 30
0.0
 11
133.9868684203676
 21
107.1990051448095
 31
0.0
  0
LINE
  5
4C1
330
37
100
AcDbEntity
  8
Mittelpunktmarkierung(TC_020513_DIN)
  6
CHAIN
 48
13.33438873291015
100
AcDbLine
 10
139.9868684203676
 20
113.1990051448095
 30
0.0
 11
139.9868684203676
 21
101.1990051448095
 31
0.0
  0
LINE
  5
4C2
330
37
100
AcDbEntity
  8
Mittellinie(TC_020513_DIN)
  6
CHAIN
 48
23.99096870422363
100
AcDbLine
 10
115.2368684203676
 20
167.5104811687117
 30
0.0
 11
115.2368684203676
 21
75.75407784154589
 31
0.0
  0
LINE
  5
4C3
330
37
100
AcDbEntity
  8
Mittellinie(TC_020513_DIN)
  6
CHAIN
 48
23.99096870422363
100
AcDbLine
 10
239.1701713079688
 20
167.6918179341804
 30
0.0
 11
239.1701713079688
 21
72.49001606310918
 31
0.0
  0
LINE
  5
4C4
330
37
100
AcDbEntity
  8
Mittellinie(TC_020513_DIN)
  6
CHAIN
 48
11.31121444702148
100
AcDbLine
 10
218.4494716063008
 20
107.1990051448095
 30
0.0
 11
208.2701713079736
 21
107.1990051448095
 31
0.0
  0
LINE
  5
4C5
330
37
100
AcDbEntity
  8
Mittellinie(TC_020513_DIN)
  6
CHAIN
 48
11.7208309173584
100
AcDbLine
 10
270.0701713079736
 20
107.1990051448095
 30
0.0
 11
259.5222480693457
 21
107.1990051448095
 31
0.0
  0
DIMENSION
  5
4C6
330
37
100
AcDbEntity
  8
Bemaßungen(TC_020513_DIN)
  6
Continuous
 62
     7
370
    25
100
AcDbDimension
  2
*D12
 10
38.48686842036761
 20
55.19900514480948
 30
0.0
 11
115.2368684203676
 21
55.19900514480948
 31
0.0
 70
   160
  1
<>
 42
153.5
  3
STANDARD-TC_020513_DIN
100
AcDbAlignedDimension
 13
191.9868684203676
 23
107.1990051448095
 33
0.0
 14
38.48686842036761
 24
107.1990051448095
 34
0.0
 50
180.0
100
AcDbRotatedDimension
1001
ACAD
1000
DSTYLE
1002
{
1070
   271
1070
     0
1070
   272
1070
     2
1070
    48
1040
0.0
1070
    47
1040
0.0
1002
}
  0
DIMENSION
  5
581
330
37
100
AcDbEntity
  8
Bemaßungen(TC_020513_DIN)
  6
Continuous
 62
     7
370
    25
100
AcDbDimension
  2
*D13
 10
161.9868684203676
 20
174.6990051448094
 30
0.0
 11
115.2368684203676
 21
174.6990051448094
 31
0.0
 70
   160
  1
<>
 42
93.49999999999999
  3
STANDARD-TC_020513_DIN
100
AcDbAlignedDimension
 13
68.48686842036762
 23
146.6990051448095
 33
0.0
 14
161.9868684203676
 24
146.6990051448095
 34
0.0
 50
180.0
100
AcDbRotatedDimension
1001
ACAD
1000
DSTYLE
1002
{
1070
   271
1070
     2
1070
   272
1070
     2
1070
    48
1040
0.0
1070
    47
1040
0.0
1002
}
  0
DIMENSION
  5
641
330
37
100
AcDbEntity
  8
Bemaßungen(TC_020513_DIN)
  6
Continuous
 62
     7
370
    25
100
AcDbDimension
  2
*D14
 10
28.48686842036763
 20
99.69900514480951
 30
0.0
 11
28.48686842036761
 21
131.4490051448095
 31
0.0
 70
   160
  1
<>
 42
63.50000000000001
  3
STANDARD-TC_020513_DIN
100
AcDbAlignedDimension
 13
97.23686842036762
 23
163.1990051448095
 33
0.0
 14
74.48686842036761
 24
99.69900514480949
 34
0.0
 50
90.0
100
AcDbRotatedDimension
1001
ACAD
1000
DSTYLE
1002
{
1070
   271
1070
     2
1070
   272
1070
     2
1070
    48
1040
0.0
1070
    47
1040
0.0
1002
}
  0
DIMENSION
  5
706
330
37
100
AcDbEntity
  8
Bemaßungen(TC_020513_DIN)
  6
Continuous
 62
     7
370
    25
100
AcDbDimension
  2
*D15
 10
276.670171307967
 20
99.69900514480949
 30
0.0
 11
276.670171307967
 21
124.6990051448095
 31
0.0
 70
   160
  1
<>
 42
50.0
  3
STANDARD-TC_020513_DIN
100
AcDbAlignedDimension
 13
254.6701713079679
 23
149.6990051448095
 33
0.0
 14
254.670171307967
 24
99.69900514480949
 34
0.0
 50
90.0
100
AcDbRotatedDimension
1001
ACAD
1000
DSTYLE
1002
{
1070
   271
1070
     2
1070
   272
1070
     2
1070
    48
1040
0.0
1070
    47
1040
0.0
1002
}
  0
DIMENSION
  5
7CB
330
37
100
AcDbEntity
  8
Bemaßungen(TC_020513_DIN)
  6
Continuous
 62
     7
370
    25
100
AcDbDimension
  2
*D16
 10
260.6701713079688
 20
64.69900514480949
 30
0.0
 11
239.1701713079688
 21
64.69900514480949
 31
0.0
 70
   160
  1
<>
 42
43.0
  3
STANDARD-TC_020513_DIN
100
AcDbAlignedDimension
 13
217.6701713079688
 23
104.6990051448095
 33
0.0
 14
260.6701713079688
 24
104.6990051448095
 34
0.0
 50
180.0
100
AcDbRotatedDimension
1001
ACAD
1000
DSTYLE
1002
{
1070
   271
1070
     2
1070
   272
1070
     2
1070
    48
1040
0.0
1070
    47
1040
0.0
1002
}
  0
DIMENSION
  5
890
330
37
100
AcDbEntity
  8
Bemaßungen(TC_020513_DIN)
  6
Continuous
 62
     7
370
    25
100
AcDbDimension
  2
*D17
 10
268.6701713079736
 20
55.1990051448095
 30
0.0
 11
239.1701713079736
 21
55.1990051448095
 31
0.0
 70
   160
  1
<>
 42
59.00000000000003
  3
STANDARD-TC_020513_DIN
100
AcDbAlignedDimension
 13
209.6701713079736
 23
107.1990051448095
 33
0.0
 14
268.6701713079736
 24
107.1990051448095
 34
0.0
100
AcDbRotatedDimension
1001
ACAD
1000
DSTYLE
1002
{
1070
   271
1070
     2
1070
   272
1070
     2
1070
    48
1040
0.0
1070
    47
1040
0.0
1002
}
  0
ENDSEC
  0
SECTION
  2
OBJECTS
  0
DICTIONARY
  5
C
330
0
100
AcDbDictionary
281
     1
  3
ACAD_COLOR
350
30
  3
ACAD_GROUP
350
D
  3
ACAD_LAYOUT
350
2F
  3
ACAD_MATERIAL
350
10
  3
ACAD_MLINESTYLE
350
2C
  3
ACAD_PLOTSETTINGS
350
2E
  3
ACAD_PLOTSTYLENAME
350
E
  3
ACAD_TABLESTYLE
350
31
  3
ACAD_VISUALSTYLE
350
14
  3
AcDbVariableDictionary
350
955
  3
DWGPROPS
350
95B
  0
DICTIONARY
  5
96A
330
FA
100
AcDbDictionary
280
     1
281
     1
  3
ACAD_MTEXT_RT
360
96B
  0
DICTIONARY
  5
96C
330
10A
100
AcDbDictionary
280
     1
281
     1
  3
ACAD_MTEXT_RT
360
96D
  0
DICTIONARY
  5
96E
330
12B
100
AcDbDictionary
280
     1
281
     1
  3
ACAD_MTEXT_RT
360
96F
  0
DICTIONARY
  5
30
102
{ACAD_REACTORS
330
C
102
}
330
C
100
AcDbDictionary
281
     1
  0
DICTIONARY
  5
D
102
{ACAD_REACTORS
330
C
102
}
330
C
100
AcDbDictionary
281
     1
  0
DICTIONARY
  5
2F
102
{ACAD_REACTORS
330
C
102
}
330
C
100
AcDbDictionary
281
     1
  3
Layout1
350
36
  3
Layout2
350
3E
  3
Model
350
3A
  0
DICTIONARY
  5
10
102
{ACAD_REACTORS
330
C
102
}
330
C
100
AcDbDictionary
281
     1
  3
ByBlock
350
12
  3
ByLayer
350
11
  3
Global
350
13
  0
DICTIONARY
  5
2C
102
{ACAD_REACTORS
330
C
102
}
330
C
100
AcDbDictionary
281
     1
  3
Standard
350
2D
  0
DICTIONARY
  5
2E
102
{ACAD_REACTORS
330
C
102
}
330
C
100
AcDbDictionary
281
     1
  0
ACDBDICTIONARYWDFLT
  5
E
102
{ACAD_REACTORS
330
C
102
}
330
C
100
AcDbDictionary
281
     1
  3
Normal
350
F
100
AcDbDictionaryWithDefault
340
F
  0
DICTIONARY
  5
31
102
{ACAD_REACTORS
330
C
102
}
330
C
100
AcDbDictionary
281
     1
  3
Standard
350
32
  0
DICTIONARY
  5
14
102
{ACAD_REACTORS
330
C
102
}
330
C
100
AcDbDictionary
281
     1
  3
2dWireframe
350
1A
  3
3D Hidden
350
1C
  3
3dWireframe
350
1B
  3
Basic
350
19
  3
Brighten
350
20
  3
ColorChange
350
24
  3
Conceptual
350
1D
  3
Dim
350
1F
  3
Facepattern
350
23
  3
Flat
350
15
  3
FlatWithEdges
350
16
  3
Gouraud
350
17
  3
GouraudWithEdges
350
18
  3
Linepattern
350
22
  3
Realistic
350
1E
  3
Thicken
350
21
  0
DICTIONARY
  5
955
102
{ACAD_REACTORS
330
C
102
}
330
C
100
AcDbDictionary
281
     1
  3
CTABLESTYLE
350
956
  3
DIMASSOC
350
95A
  3
HIDETEXT
350
959
  3
INDEXCTL
350
958
  3
SORTENTS
350
957
  0
XRECORD
  5
95B
102
{ACAD_REACTORS
330
C
102
}
330
C
100
AcDbXrecord
280
     1
  1
DWGPROPS COOKIE
  2

  3

  4
klein
  6

  7

  8

  9

300
Manager=
301
Firma=
302
Kategorie=
303
Bauteilnummer=CMV 06 G
304
Bezeichnung=
305
Projekt=
306
Konstrukteur=klein
307
Ingenieur=
308
Bevollmächtigter=
309
Kostenstelle=
 40
0.0000643634259259
 41
2454111.730245163
 42
2454111.730245163
  1

 90
       22
300
Zulieferer=
300
Benutzerstatus=
300
Konstruktionsstatus=InBearbeitung
300
Kontrolliert von=
300
Konstruktion genehmigt von=
300
Fertigung genehmigt von=
300
FirstViewScale:1=1:1
300
SaveDate=08/30/2006
300
SaveTime=14:09
300
PaperSize=A4
300
AllViewScales=1:1
300
FirstViewScale=1:1
  0
XRECORD
  5
96B
102
{ACAD_REACTORS
330
96A
102
}
330
96A
100
AcDbXrecord
280
     1
 40
45260.0
  1
Für spanlose Bearbeitung
  0
XRECORD
  5
96D
102
{ACAD_REACTORS
330
96C
102
}
330
96C
100
AcDbXrecord
280
     1
 40
49954.0
  1
Alle nicht bemaßten Radien R
  0
XRECORD
  5
96F
102
{ACAD_REACTORS
330
96E
102
}
330
96E
100
AcDbXrecord
280
     1
 40
53914.0
  1
Werkstückkanten\Pnach ISO 13715
  0
LAYOUT
  5
36
102
{ACAD_XDICTIONARY
360
964
102
}
102
{ACAD_REACTORS
330
2F
102
}
330
2F
100
AcDbPlotSettings
  1

  2

  4

  6

 40
0.0
 41
0.0
 42
0.0
 43
0.0
 44
0.0
 45
0.0
 46
0.0
 47
0.0
 48
0.0
 49
0.0
140
0.0
141
0.0
142
1.0
143
1.0
 70
   688
 72
     0
 73
     0
 74
     5
  7

 75
    16
147
1.0
148
0.0
149
0.0
100
AcDbLayout
  1
Layout1
 70
     1
 71
     1
 10
0.0
 20
0.0
 11
12.0
 21
9.0
 12
0.0
 22
0.0
 32
0.0
 14
0.0
 24
0.0
 34
0.0
 15
0.0
 25
0.0
 35
0.0
146
0.0
 13
0.0
 23
0.0
 33
0.0
 16
1.0
 26
0.0
 36
0.0
 17
0.0
 27
1.0
 37
0.0
 76
     0
330
33
  0
LAYOUT
  5
3E
102
{ACAD_XDICTIONARY
360
968
102
}
102
{ACAD_REACTORS
330
2F
102
}
330
2F
100
AcDbPlotSettings
  1

  2

  4

  6

 40
0.0
 41
0.0
 42
0.0
 43
0.0
 44
0.0
 45
0.0
 46
0.0
 47
0.0
 48
0.0
 49
0.0
140
0.0
141
0.0
142
1.0
143
1.0
 70
   688
 72
     0
 73
     0
 74
     5
  7

 75
    16
147
1.0
148
0.0
149
0.0
100
AcDbLayout
  1
Layout2
 70
     1
 71
     2
 10
0.0
 20
0.0
 11
12.0
 21
9.0
 12
0.0
 22
0.0
 32
0.0
 14
0.0
 24
0.0
 34
0.0
 15
0.0
 25
0.0
 35
0.0
146
0.0
 13
0.0
 23
0.0
 33
0.0
 16
1.0
 26
0.0
 36
0.0
 17
0.0
 27
1.0
 37
0.0
 76
     0
330
3B
  0
LAYOUT
  5
3A
102
{ACAD_XDICTIONARY
360
966
102
}
102
{ACAD_REACTORS
330
2F
102
}
330
2F
100
AcDbPlotSettings
  1

  2

  4

  6

 40
0.0
 41
0.0
 42
0.0
 43
0.0
 44
0.0
 45
0.0
 46
0.0
 47
0.0
 48
0.0
 49
0.0
140
0.0
141
0.0
142
1.0
143
1.0
 70
  1712
 72
     0
 73
     0
 74
     0
  7

 75
     0
147
1.0
148
0.0
149
0.0
100
AcDbLayout
  1
Model
 70
     1
 71
     0
 10
0.0
 20
0.0
 11
12.0
 21
9.0
 12
0.0
 22
0.0
 32
0.0
 14
0.0
 24
0.0
 34
0.0
 15
0.0
 25
0.0
 35
0.0
146
0.0
 13
0.0
 23
0.0
 33
0.0
 16
1.0
 26
0.0
 36
0.0
 17
0.0
 27
1.0
 37
0.0
 76
     0
330
37
  0
MATERIAL
  5
12
102
{ACAD_XDICTIONARY
360
95E
102
}
102
{ACAD_REACTORS
330
10
102
}
330
10
100
AcDbMaterial
  1
ByBlock
  0
MATERIAL
  5
11
102
{ACAD_XDICTIONARY
360
95C
102
}
102
{ACAD_REACTORS
330
10
102
}
330
10
100
AcDbMaterial
  1
ByLayer
  0
MATERIAL
  5
13
102
{ACAD_XDICTIONARY
360
960
102
}
102
{ACAD_REACTORS
330
10
102
}
330
10
100
AcDbMaterial
  1
Global
  0
MLINESTYLE
  5
2D
102
{ACAD_REACTORS
330
2C
102
}
330
2C
100
AcDbMlineStyle
  2
STANDARD
 70
     0
  3

 62
   256
 51
90.0
 52
90.0
 71
     2
 49
0.5
 62
   256
  6
BYLAYER
 49
-0.5
 62
   256
  6
BYLAYER
  0
ACDBPLACEHOLDER
  5
F
102
{ACAD_REACTORS
330
E
102
}
330
E
  0
TABLESTYLE
  5
32
102
{ACAD_XDICTIONARY
360
962
102
}
102
{ACAD_REACTORS
330
31
102
}
330
31
100
AcDbTableStyle
  3
Standard
 70
     0
 71
     0
 40
0.06
 41
0.06
280
     0
281
     0
  7
Standard
140
0.18
170
     2
 62
     0
 63
     7
283
     0
274
    -2
284
     1
 64
     0
275
    -2
285
     1
 65
     0
276
    -2
286
     1
 66
     0
277
    -2
287
     1
 67
     0
278
    -2
288
     1
 68
     0
279
    -2
289
     1
 69
     0
  7
Standard
140
0.25
170
     5
 62
     0
 63
     7
283
     0
274
    -2
284
     1
 64
     0
275
    -2
285
     1
 65
     0
276
    -2
286
     1
 66
     0
277
    -2
287
     1
 67
     0
278
    -2
288
     1
 68
     0
279
    -2
289
     1
 69
     0
  7
Standard
140
0.18
170
     5
 62
     0
 63
     7
283
     0
274
    -2
284
     1
 64
     0
275
    -2
285
     1
 65
     0
276
    -2
286
     1
 66
     0
277
    -2
287
     1
 67
     0
278
    -2
288
     1
 68
     0
279
    -2
289
     1
 69
     0
  0
VISUALSTYLE
  5
1A
102
{ACAD_REACTORS
330
14
102
}
330
14
100
AcDbVisualStyle
  2
2dWireframe
 70
     4
 71
     0
 72
     2
 73
     0
 90
        0
 40
-0.6
 41
-30.0
 62
     5
 63
     7
 74
     1
 91
        4
 64
     7
 65
   257
 75
     1
175
     1
 42
1.0
 92
        0
 66
   257
 43
1.0
 76
     1
 77
     6
 78
     2
 67
     7
 79
     5
170
     0
171
     0
290
     0
174
     0
 93
        1
 44
0.0
173
     0
291
     0
 45
0.0
1001
ACAD
1000
AcDbSavedByObjectVersion
1070
     0
  0
VISUALSTYLE
  5
1C
102
{ACAD_REACTORS
330
14
102
}
330
14
100
AcDbVisualStyle
  2
3D Hidden
 70
     6
 71
     1
 72
     2
 73
     2
 90
        0
 40
-0.6
 41
-30.0
 62
     5
 63
     7
 74
     2
 91
        2
 64
     7
 65
   257
 75
     2
175
     1
 42
40.0
 92
        0
 66
   257
 43
1.0
 76
     1
 77
     6
 78
     2
 67
     7
 79
     3
170
     0
171
     0
290
     0
174
     0
 93
        1
 44
0.0
173
     0
291
     0
 45
0.0
1001
ACAD
1000
AcDbSavedByObjectVersion
1070
     0
  0
VISUALSTYLE
  5
1B
102
{ACAD_REACTORS
330
14
102
}
330
14
100
AcDbVisualStyle
  2
3dWireframe
 70
     5
 71
     0
 72
     2
 73
     0
 90
        0
 40
-0.6
 41
-30.0
 62
     5
 63
     7
 74
     1
 91
        4
 64
     7
 65
   257
 75
     1
175
     1
 42
1.0
 92
        0
 66
   257
 43
1.0
 76
     1
 77
     6
 78
     2
 67
     7
 79
     5
170
     0
171
     0
290
     0
174
     0
 93
        1
 44
0.0
173
     0
291
     0
 45
0.0
1001
ACAD
1000
AcDbSavedByObjectVersion
1070
     0
  0
VISUALSTYLE
  5
19
102
{ACAD_REACTORS
330
14
102
}
330
14
100
AcDbVisualStyle
  2
Basic
 70
     7
 71
     1
 72
     0
 73
     1
 90
        0
 40
-0.6
 41
-30.0
 62
     5
 63
     7
 74
     0
 91
        4
 64
     7
 65
   257
 75
     1
175
     1
 42
1.0
 92
        8
 66
     7
 43
1.0
 76
     1
 77
     6
 78
     2
 67
     7
 79
     5
170
     0
171
     0
290
     0
174
     0
 93
        1
 44
0.0
173
     0
291
     1
 45
0.0
1001
ACAD
1000
AcDbSavedByObjectVersion
1070
     0
  0
VISUALSTYLE
  5
20
102
{ACAD_REACTORS
330
14
102
}
330
14
100
AcDbVisualStyle
  2
Brighten
 70
    12
 71
     2
 72
     2
 73
     0
 90
        0
 40
-0.6
 41
-30.0
 62
     5
 63
     7
 74
     1
 91
        4
 64
     7
 65
   257
 75
     1
175
     1
 42
1.0
 92
        8
 66
     7
 43
1.0
 76
     1
 77
     6
 78
     2
 67
     7
 79
     5
170
     0
171
     0
290
     0
174
     0
 93
        1
 44
50.0
173
     0
291
     1
 45
0.0
1001
ACAD
1000
AcDbSavedByObjectVersion
1070
     0
  0
VISUALSTYLE
  5
24
102
{ACAD_REACTORS
330
14
102
}
330
14
100
AcDbVisualStyle
  2
ColorChange
 70
    16
 71
     2
 72
     2
 73
     3
 90
        0
 40
-0.6
 41
-30.0
 62
     5
 63
     8
 74
     1
 91
        4
 64
     7
 65
   257
 75
     1
175
     1
 42
1.0
 92
        8
 66
     8
 43
1.0
 76
     1
 77
     6
 78
     2
 67
     7
 79
     5
170
     0
171
     0
290
     0
174
     0
 93
        1
 44
0.0
173
     0
291
     1
 45
0.0
1001
ACAD
1000
AcDbSavedByObjectVersion
1070
     0
  0
VISUALSTYLE
  5
1D
102
{ACAD_REACTORS
330
14
102
}
330
14
100
AcDbVisualStyle
  2
Conceptual
 70
     9
 71
     3
 72
     2
 73
     0
 90
        0
 40
-0.6
 41
-30.0
 62
     5
 63
     7
 74
     2
 91
        2
 64
     7
 65
   257
 75
     1
175
     1
 42
40.0
 92
        8
 66
     7
 43
1.0
 76
     1
 77
     6
 78
     2
 67
     7
 79
     3
170
     0
171
     0
290
     0
174
     0
 93
        1
 44
0.0
173
     0
291
     0
 45
0.0
1001
ACAD
1000
AcDbSavedByObjectVersion
1070
     0
  0
VISUALSTYLE
  5
1F
102
{ACAD_REACTORS
330
14
102
}
330
14
100
AcDbVisualStyle
  2
Dim
 70
    11
 71
     2
 72
     2
 73
     0
 90
        0
 40
-0.6
 41
-30.0
 62
     5
 63
     7
 74
     1
 91
        4
 64
     7
 65
   257
 75
     1
175
     1
 42
1.0
 92
        8
 66
     7
 43
1.0
 76
     1
 77
     6
 78
     2
 67
     7
 79
     5
170
     0
171
     0
290
     0
174
     0
 93
        1
 44
-50.0
173
     0
291
     1
 45
0.0
1001
ACAD
1000
AcDbSavedByObjectVersion
1070
     0
  0
VISUALSTYLE
  5
23
102
{ACAD_REACTORS
330
14
102
}
330
14
100
AcDbVisualStyle
  2
Facepattern
 70
    15
 71
     2
 72
     2
 73
     0
 90
        0
 40
-0.6
 41
-30.0
 62
     5
 63
     7
 74
     1
 91
        4
 64
     7
 65
   257
 75
     1
175
     1
 42
1.0
 92
        8
 66
     7
 43
1.0
 76
     1
 77
     6
 78
     2
 67
     7
 79
     5
170
     0
171
     0
290
     0
174
     0
 93
        1
 44
0.0
173
     0
291
     1
 45
0.0
1001
ACAD
1000
AcDbSavedByObjectVersion
1070
     0
  0
VISUALSTYLE
  5
15
102
{ACAD_REACTORS
330
14
102
}
330
14
100
AcDbVisualStyle
  2
Flat
 70
     0
 71
     2
 72
     1
 73
     1
 90
        2
 40
-0.6
 41
30.0
 62
     5
 63
     7
 74
     0
 91
        4
 64
     7
 65
   257
 75
     1
175
     1
 42
1.0
 92
        8
 66
     7
 43
1.0
 76
     1
 77
     6
 78
     2
 67
     7
 79
     5
170
     0
171
     0
290
     0
174
     0
 93
       13
 44
0.0
173
     0
291
     1
 45
0.0
1001
ACAD
1000
AcDbSavedByObjectVersion
1070
     0
  0
VISUALSTYLE
  5
16
102
{ACAD_REACTORS
330
14
102
}
330
14
100
AcDbVisualStyle
  2
FlatWithEdges
 70
     1
 71
     2
 72
     1
 73
     1
 90
        2
 40
-0.6
 41
30.0
 62
     5
 63
     7
 74
     1
 91
        4
 64
     7
 65
   257
 75
     1
175
     1
 42
1.0
 92
        0
 66
   257
 43
1.0
 76
     1
 77
     6
 78
     2
 67
     7
 79
     5
170
     0
171
     0
290
     0
174
     0
 93
       13
 44
0.0
173
     0
291
     1
 45
0.0
1001
ACAD
1000
AcDbSavedByObjectVersion
1070
     0
  0
VISUALSTYLE
  5
17
102
{ACAD_REACTORS
330
14
102
}
330
14
100
AcDbVisualStyle
  2
Gouraud
 70
     2
 71
     2
 72
     2
 73
     1
 90
        2
 40
-0.6
 41
30.0
 62
     5
 63
     7
 74
     0
 91
        4
 64
     7
 65
   257
 75
     1
175
     1
 42
1.0
 92
        0
 66
     7
 43
1.0
 76
     1
 77
     6
 78
     2
 67
     7
 79
     5
170
     0
171
     0
290
     0
174
     0
 93
       13
 44
0.0
173
     0
291
     1
 45
0.0
1001
ACAD
1000
AcDbSavedByObjectVersion
1070
     0
  0
VISUALSTYLE
  5
18
102
{ACAD_REACTORS
330
14
102
}
330
14
100
AcDbVisualStyle
  2
GouraudWithEdges
 70
     3
 71
     2
 72
     2
 73
     1
 90
        2
 40
-0.6
 41
30.0
 62
     5
 63
     7
 74
     1
 91
        4
 64
     7
 65
   257
 75
     1
175
     1
 42
1.0
 92
        0
 66
   257
 43
1.0
 76
     1
 77
     6
 78
     2
 67
     7
 79
     5
170
     0
171
     0
290
     0
174
     0
 93
       13
 44
0.0
173
     0
291
     1
 45
0.0
1001
ACAD
1000
AcDbSavedByObjectVersion
1070
     0
  0
VISUALSTYLE
  5
22
102
{ACAD_REACTORS
330
14
102
}
330
14
100
AcDbVisualStyle
  2
Linepattern
 70
    14
 71
     2
 72
     2
 73
     0
 90
        0
 40
-0.6
 41
-30.0
 62
     5
 63
     7
 74
     1
 91
        4
 64
     7
 65
   257
 75
     7
175
     7
 42
1.0
 92
        8
 66
     7
 43
1.0
 76
     1
 77
     6
 78
     2
 67
     7
 79
     5
170
     0
171
     0
290
     0
174
     0
 93
        1
 44
0.0
173
     0
291
     1
 45
0.0
1001
ACAD
1000
AcDbSavedByObjectVersion
1070
     0
  0
VISUALSTYLE
  5
1E
102
{ACAD_REACTORS
330
14
102
}
330
14
100
AcDbVisualStyle
  2
Realistic
 70
     8
 71
     2
 72
     2
 73
     0
 90
        0
 40
-0.6
 41
-30.0
 62
     5
 63
     7
 74
     1
 91
        0
 64
     7
 65
   257
 75
     1
175
     1
 42
1.0
 92
        8
 66
     8
 43
1.0
 76
     1
 77
     6
 78
     2
 67
     7
 79
     5
170
     0
171
     0
290
     0
174
     0
 93
       13
 44
0.0
173
     0
291
     0
 45
0.0
1001
ACAD
1000
AcDbSavedByObjectVersion
1070
     0
  0
VISUALSTYLE
  5
21
102
{ACAD_REACTORS
330
14
102
}
330
14
100
AcDbVisualStyle
  2
Thicken
 70
    13
 71
     2
 72
     2
 73
     0
 90
        0
 40
-0.6
 41
-30.0
 62
     5
 63
     7
 74
     1
 91
        4
 64
     7
 65
   257
 75
     1
175
     1
 42
1.0
 92
       12
 66
     7
 43
1.0
 76
     1
 77
     6
 78
     2
 67
     7
 79
     5
170
     0
171
     0
290
     0
174
     0
 93
        1
 44
0.0
173
     0
291
     1
 45
0.0
1001
ACAD
1000
AcDbSavedByObjectVersion
1070
     0
  0
DICTIONARYVAR
  5
956
102
{ACAD_REACTORS
330
955
102
}
330
955
100
DictionaryVariables
280
     0
  1
STANDARD
  0
DICTIONARYVAR
  5
95A
102
{ACAD_REACTORS
330
955
102
}
330
955
100
DictionaryVariables
280
     0
  1
1
  0
DICTIONARYVAR
  5
959
102
{ACAD_REACTORS
330
955
102
}
330
955
100
DictionaryVariables
280
     0
  1
1
  0
DICTIONARYVAR
  5
958
102
{ACAD_REACTORS
330
955
102
}
330
955
100
DictionaryVariables
280
     0
  1
0
  0
DICTIONARYVAR
  5
957
102
{ACAD_REACTORS
330
955
102
}
330
955
100
DictionaryVariables
280
     0
  1
127
  0
DICTIONARY
  5
964
330
36
100
AcDbDictionary
280
     1
281
     1
  3
ACAD_XREC_ROUNDTRIP
360
965
  0
DICTIONARY
  5
968
330
3E
100
AcDbDictionary
280
     1
281
     1
  3
ACAD_XREC_ROUNDTRIP
360
969
  0
DICTIONARY
  5
966
330
3A
100
AcDbDictionary
280
     1
281
     1
  3
ACAD_XREC_ROUNDTRIP
360
967
  0
DICTIONARY
  5
95E
330
12
100
AcDbDictionary
280
     1
281
     1
  3
ACAD_XREC_ROUNDTRIP
360
95F
  0
DICTIONARY
  5
95C
330
11
100
AcDbDictionary
280
     1
281
     1
  3
ACAD_XREC_ROUNDTRIP
360
95D
  0
DICTIONARY
  5
960
330
13
100
AcDbDictionary
280
     1
281
     1
  3
ACAD_XREC_ROUNDTRIP
360
961
  0
DICTIONARY
  5
962
330
32
100
AcDbDictionary
280
     1
281
     1
  3
ACAD_XREC_ROUNDTRIP
360
963
  0
XRECORD
  5
965
102
{ACAD_REACTORS
330
964
102
}
330
964
100
AcDbXrecord
280
     1
102
SHADEPLOT
 70
     0
102
SHADEPLOTRESLEVEL
 70
     2
102
SHADEPLOTCUSTOMDPI
 70
   300
  0
XRECORD
  5
969
102
{ACAD_REACTORS
330
968
102
}
330
968
100
AcDbXrecord
280
     1
102
SHADEPLOT
 70
     0
102
SHADEPLOTRESLEVEL
 70
     2
102
SHADEPLOTCUSTOMDPI
 70
   300
  0
XRECORD
  5
967
102
{ACAD_REACTORS
330
966
102
}
330
966
100
AcDbXrecord
280
     1
102
SHADEPLOT
 70
     0
102
SHADEPLOTRESLEVEL
 70
     2
102
SHADEPLOTCUSTOMDPI
 70
   300
  0
XRECORD
  5
95F
102
{ACAD_REACTORS
330
95E
102
}
330
95E
100
AcDbXrecord
280
     1
102
MATERIAL
148
0.0
149
0.0
149
0.0
 93
        0
 94
       63
282
     0
 72
     1
 77
     1
171
     1
175
     1
179
     1
273
     0
  0
XRECORD
  5
95D
102
{ACAD_REACTORS
330
95C
102
}
330
95C
100
AcDbXrecord
280
     1
102
MATERIAL
148
0.0
149
0.0
149
0.0
 93
        0
 94
       63
282
     0
 72
     1
 77
     1
171
     1
175
     1
179
     1
273
     0
  0
XRECORD
  5
961
102
{ACAD_REACTORS
330
960
102
}
330
960
100
AcDbXrecord
280
     1
102
MATERIAL
148
0.0
149
0.0
149
0.0
 93
        0
 94
       63
282
     0
 72
     1
 77
     1
171
     1
175
     1
179
     1
273
     0
  0
XRECORD
  5
963
102
{ACAD_REACTORS
330
962
102
}
330
962
100
AcDbXrecord
280
     1
102
ACAD_ROUNDTRIP_PRE2007_TABLESTYLE
 90
      512
 91
        0
  1

 92
      512
 93
        0
  2

 94
      512
 95
        0
  3

  0
ENDSEC
  0
EOF
